Варкрафт / Warcraft (Дункан Джонс / Duncan Jones) [2016 г., фэнтези, боевик, приключения, BDRip 1080p] Dub [Лицензия] + Original (Eng) + Sub (Rus, Eng)

Ответить на тему
 
Автор
Сообщение

Пост 30-Сен-2016 10:41

[Q] 

aleksey99

--Варкрафт / Warcraft--«Два мира - одна судьба»-- Производство: США, Atlas Entertainment, Blizzard Entertainment, Legendary Pictures, Universal Pictures
Год выпуска: 2016 г.
Жанр: фэнтези, боевик, приключения
Продолжительность: 02:03:47--Мировая премьера: 25 мая 2016
Российская премьера: 26 мая 2016, «UPI»
Дата выхода DVD: 26 сентября 2016, «НД Плэй»
Дата выхода Blu-Ray: 26 сентября 2016, «НД Плэй»--Перевод: Профессиональный (полное дублирование) [Лицензия]
Оригинальный аудиопоток: английский--Режиссер: Дункан Джонс / Duncan Jones--В ролях: Трэвис Фиммел, Пола Пэттон, Бен Фостер, Доминик Купер, Тоби Кеббелл, Бен Шнетцер, Роберт Казински, Клэнси Браун, Дэниэл Ву, Рут Негга--Описание: Веками магия и неприступные стены защищали людей от любых напастей. Но древнее зло, побежденное и забытое тысячелетия назад, пробудилось.
В самом сердце королевства открылся темный портал, и раса невиданных существ наводнила земли Азерота. Так начались события, призванные навсегда изменить судьбу этого мира.-- --Качество видео: BDRip 1080p
Контейнер: MKV
Видео кодек: AVC/H.264
Аудио кодек: AC3
Видео: AVC, 1920x788 (2.40:1), 12.8 Mбит/с, 23,976 fps, 0.353 bpp
Аудио 1: 48 kHz, AC3 Dolby Digital, 3/2 (L,C,R,l,r) + LFE ch, ~640 kbps RUS
Аудио 2: 48 kHz, AC3 Dolby Digital, 3/2 (L,C,R,l,r) + LFE ch, ~640 kbps ENG
Cубтитры: русские, английские.
Общее
Уникальный идентификатор : 187363556926161515911479909934523124729 (0x8CF4E891F4885A91A7A8784CED2A8BF9)
Полное имя : H:\Torrent2\Варкрафт.1080p. Ton.mkv
Формат : Matroska
Версия формата : Version 4 / Version 2
Размер файла : 12,1 Гбайт
Продолжительность : 2 ч. 3 м.
Общий поток : 14,1 Мбит/сек
Дата кодирования : UTC 2016-09-21 20:03:40
Программа кодирования : mkvmerge v7.1.0 ('Good Love') 64bit built on Jul 27 2014 13:06:55
Библиотека кодирования : libebml v1.3.0 + libmatroska v1.4.1
Видео
Идентификатор : 1
Формат : AVC
Формат/Информация : Advanced Video Codec
Профиль формата : High@L4.1
Параметр CABAC формата : Да
Параметр ReFrames формата : 4 кадра
Идентификатор кодека : V_MPEG4/ISO/AVC
Продолжительность : 2 ч. 3 м.
Битрейт : 12,8 Мбит/сек
Ширина : 1920 пикселей
Высота : 788 пикселей
Соотношение сторон : 2,40:1
Режим частоты кадров : Постоянный
Частота кадров : 23,976 (24000/1001) кадра/сек
Цветовое пространство : YUV
Субдискретизация насыщенности : 4:2:0
Битовая глубина : 8 бит
Тип развёртки : Прогрессивная
Бит/(Пиксели*Кадры) : 0.353
Размер потока : 11,0 Гбайт (91%)
Библиотека кодирования : x264 core 148 r2705 3f5ed56
Настройки программы : cabac=1 / ref=5 / deblock=1:-3:-3 / analyse=0x3:0x133 / me=umh / subme=11 / psy=1 / psy_rd=1.00:0.00 / mixed_ref=1 / me_range=64 / chroma_me=1 / trellis=2 / 8x8dct=1 / cqm=0 / deadzone=21,11 / fast_pskip=0 / chroma_qp_offset=-2 / threads=12 / lookahead_threads=2 / sliced_threads=0 / nr=0 / decimate=0 / interlaced=0 / bluray_compat=0 / constrained_intra=0 / bframes=8 / b_pyramid=1 / b_adapt=2 / b_bias=0 / direct=3 / weightb=1 / open_gop=0 / weightp=2 / keyint=240 / keyint_min=2 / scenecut=40 / intra_refresh=0 / rc=2pass / mbtree=0 / bitrate=12800 / ratetol=1.0 / qcomp=0.70 / qpmin=0 / qpmax=69 / qpstep=4 / cplxblur=20.0 / qblur=0.5 / ip_ratio=1.20 / pb_ratio=1.20 / aq=3:0.80
Язык : English
Default : Да
Forced : Нет
Аудио #1
Идентификатор : 2
Формат : AC-3
Формат/Информация : Audio Coding 3
Расширение режима : CM (complete main)
Параметр Endianness формата : Big
Идентификатор кодека : A_AC3
Продолжительность : 2 ч. 3 м.
Вид битрейта : Постоянный
Битрейт : 640 Кбит/сек
Каналы : 6 каналов
Расположение каналов : Front: L C R, Side: L R, LFE
Частота : 48,0 КГц
Частота кадров : 31,250 кадров/сек (1536 spf)
Метод сжатия : С потерями
Размер потока : 564 Мбайт (5%)
Язык : Russian
Default : Да
Forced : Нет
Аудио #2
Идентификатор : 3
Формат : AC-3
Формат/Информация : Audio Coding 3
Расширение режима : CM (complete main)
Параметр Endianness формата : Big
Идентификатор кодека : A_AC3
Продолжительность : 2 ч. 3 м.
Вид битрейта : Постоянный
Битрейт : 640 Кбит/сек
Каналы : 6 каналов
Расположение каналов : Front: L C R, Side: L R, LFE
Частота : 48,0 КГц
Частота кадров : 31,250 кадров/сек (1536 spf)
Метод сжатия : С потерями
Размер потока : 564 Мбайт (5%)
Язык : English
Default : Нет
Forced : Нет
Текст #1
Идентификатор : 4
Формат : UTF-8
Идентификатор кодека : S_TEXT/UTF8
Идентификатор кодека/Информация : UTF-8 Plain Text
Продолжительность : 1 ч. 43 м.
Битрейт : 0 бит/сек
Count of elements : 9
Размер потока : 312 байт (0%)
Заголовок : Forced
Язык : Russian
Default : Да
Forced : Нет
Текст #2
Идентификатор : 5
Формат : UTF-8
Идентификатор кодека : S_TEXT/UTF8
Идентификатор кодека/Информация : UTF-8 Plain Text
Продолжительность : 1 ч. 53 м.
Битрейт : 57 бит/сек
Count of elements : 1053
Размер потока : 48,3 Кбайт (0%)
Язык : Russian
Default : Нет
Forced : Нет
Текст #3
Идентификатор : 6
Формат : UTF-8
Идентификатор кодека : S_TEXT/UTF8
Идентификатор кодека/Информация : UTF-8 Plain Text
Продолжительность : 1 ч. 52 м.
Битрейт : 36 бит/сек
Count of elements : 1234
Размер потока : 30,1 Кбайт (0%)
Язык : English
Default : Нет
Forced : Нет
Текст #4
Идентификатор : 7
Формат : UTF-8
Идентификатор кодека : S_TEXT/UTF8
Идентификатор кодека/Информация : UTF-8 Plain Text
Продолжительность : 1 ч. 53 м.
Битрейт : 41 бит/сек
Count of elements : 1393
Размер потока : 35,0 Кбайт (0%)
Заголовок : SDH
Язык : English
Default : Нет
Forced : Нет
Меню
00:00:00.000 : en:Chapter 1
00:09:27.000 : en:Chapter 2
00:15:51.000 : en:Chapter 3
00:22:38.000 : en:Chapter 4
00:29:18.000 : en:Chapter 5
00:38:44.000 : en:Chapter 6
00:46:45.000 : en:Chapter 7
00:53:04.000 : en:Chapter 8
00:56:19.000 : en:Chapter 9
01:02:45.000 : en:Chapter 10
01:07:50.000 : en:Chapter 11
01:12:26.000 : en:Chapter 12
01:17:14.000 : en:Chapter 13
01:22:47.000 : en:Chapter 14
01:26:34.000 : en:Chapter 15
01:32:31.000 : en:Chapter 16
01:40:23.000 : en:Chapter 17
01:47:38.000 : en:Chapter 18
01:51:13.000 : en:Chapter 19
01:53:59.000 : en:Chapter 20
Трейлер
Download / Скачать

Хотите скачать бесплатно? Зарегистрируйтесь на сайте (ссылка на регистрацию). Pirat.ca - самый быстрый торрент трекер в рунете!

Как скачивать  ·   Что такое торрент  ·   Рейтинг и ограничения



Последний раз редактировалось: aleksey99 (2016-10-01 09:05), всего редактировалось 1 раз

stranik22

Морской Волк

Пост 30-Сен-2016 10:57 (спустя 16 минут)

[Q] 

когда 6удет в 3д?
[Профиль]  [ЛС] 

Пост 31-Окт-2016 08:40 (спустя 1 месяц)

Топик был перенесен из форума Новинки (BD/HDTV/DVD) в форум HD (Зарубежное Кино)
aleksey99
 

Kesseril

Шкипер

Пост 05-Июл-2018 00:02 (спустя 1 год 9 месяцев)

[Q] 

раздачи нет чета
Добавлено спустя 1 час 15 минут 53 секунды:
похоже не удастся даже на сон грядущий посмотреть, жаль ждал такого качества, раздачи нет почти,мож кто встанет на раздачу еще а то скорости вообще нет.
[Профиль]  [ЛС] 
Показать сообщения:    
Ответить на тему

Текущее время: Сегодня 15:55

Часовой пояс: GMT + 4



Вы не можете начинать темы
Вы не можете отвечать на сообщения
Вы не можете редактировать свои сообщения
Вы не можете удалять свои сообщения
Вы не можете голосовать в опросах
Вы не можете прикреплять файлы к сообщениям
Вы не можете скачивать файлы

Майнать ▼