План побега / Escape Plan (Микаэль Хофстрём / Mikael Hafstrom) [2013 г., Боевик, триллер, детектив, BDRip, 720p] Dub (Лицензия) + Sub (Rus, Eng) + Original (Eng)

Ответить на тему
 
Автор
Сообщение

Пост 12-Июн-2014 14:50

[Q] 

LPPI

Гроза морей

-План побега / Escape Plan-«Из самой надежной тюрьмы в одиночку убежать невозможно»- Производство: США, Atmosphere Entertainment MM LLC, Boies/Schiller Film Group, Emmett/Furla Films, Envision Entertainment Corporation, Spiderwood Productions
Год выпуска: 2013 г.
Жанр: Боевик, триллер, детектив
Продолжительность: 01:55:35
Мировая премьера: 18 июля 2013
Российская премьера: 17 октября 2013, «Централ Партнершип»
Дата выхода DVD: 11 июня 2014, «CD Land»
Дата выхода Blu-Ray: 11 июня 2014, «CD Land»
Перевод: Профессиональный (полное дублирование) [Лицензия]
Оригинальный аудиопоток: английский-Режиссер: Микаэль Хофстрём / Mikael Hafstrom
В ролях: Сильвестр Сталлоне, Арнольд Шварценеггер, Джеймс Кэвизел, Фифти Сент, Винни Джонс, Винсент Д’Онофрио, Эми Райан, Фаран Таир, Сэм Нил, Мэтт Джералд-Описание: Один из самых выдающихся мировых специалистов по системам безопасности соглашается на последнюю рисковую операцию: сбежать из суперсекретной высокотехнологичной тюрьмы, которую называют «Гробницей». Преданный Рэй Бреслин вынужден прибегнуть к помощи напарника — заключенного Эмиля Ротмайера, чтобы разработать отчаянный и практически неосуществимый план побега из самой защищенной тюрьмы в мире!- -Качество видео: BDRip
Контейнер: MKV
Стандарт разрешения: 720p
Видео кодек: H.264
Аудио кодек: AC3
Видео: 1280x544 (2,40:1), 23,976 fps, 4157 Кbps, 0.254 bit/pixel
Аудио: 48 kHz, AC3 Dolby Digital, 3/2 (L,C,R,l,r) + LFE ch, 640.00 kbps [Rus, Dub]
Аудио #2: 48 kHz, AC3 Dolby Digital, 3/2 (L,C,R,l,r) + LFE ch, 640.00 kbps [Eng, Original]
Cубтитры: Русские (BD RUS), английские (Full + SDH + SDH-Colored)
Навигация по главам: Есть
General
Unique ID : 203621863605901620928897509009796676004 (0x993024FA59DEC1618C41100E12A4B9A4)
Complete name : D:\Escape.Plan.2013.D.BDRip.720p.mkv
Format : Matroska
Format version : Version 4 / Version 2
File size : 4.39 GiB
Duration : 1h 55mn
Overall bit rate : 5 433 Kbps
Encoded date : UTC 2014-06-12 09:51:55
Writing application : mkvmerge v6.9.1 ('Blue Panther') 64bit built on Apr 18 2014 18:23:38
Writing library : libebml v1.3.0 + libmatroska v1.4.1
Video
ID : 1
Format : AVC
Format/Info : Advanced Video Codec
Format profile : High@L4.1
Format settings, CABAC : Yes
Format settings, ReFrames : 9 frames
Codec ID : V_MPEG4/ISO/AVC
Duration : 1h 55mn
Bit rate : 4 157 Kbps
Width : 1 280 pixels
Height : 534 pixels
Display aspect ratio : 2.40:1
Frame rate mode : Constant
Frame rate : 23.976 fps
Color space : YUV
Chroma subsampling : 4:2:0
Bit depth : 8 bits
Scan type : Progressive
Bits/(Pixel*Frame) : 0.254
Stream size : 3.27 GiB (74%)
Title : Escape Plan
Writing library : x264 core 130 r2273 b3065e6
Encoding settings : cabac=1 / ref=9 / deblock=1:-2:-2 / analyse=0x3:0x133 / me=umh / subme=11 / psy=1 / psy_rd=0.99:0.00 / mixed_ref=1 / me_range=32 / chroma_me=1 / trellis=2 / 8x8dct=1 / cqm=0 / deadzone=21,11 / fast_pskip=0 / chroma_qp_offset=-2 / threads=6 / lookahead_threads=6 / sliced_threads=0 / nr=0 / decimate=0 / interlaced=0 / bluray_compat=0 / constrained_intra=0 / bframes=10 / b_pyramid=2 / b_adapt=2 / b_bias=0 / direct=3 / weightb=1 / open_gop=0 / weightp=2 / keyint=250 / keyint_min=23 / scenecut=40 / intra_refresh=0 / rc_lookahead=60 / rc=2pass / mbtree=0 / bitrate=4157 / ratetol=1.0 / qcomp=0.70 / qpmin=0 / qpmax=69 / qpstep=4 / cplxblur=20.0 / qblur=0.5 / vbv_maxrate=50000 / vbv_bufsize=62500 / nal_hrd=none / ip_ratio=1.35 / pb_ratio=1.25 / aq=1:0.80
Language : English
Default : Yes
Forced : No
Audio #1
ID : 2
Format : AC-3
Format/Info : Audio Coding 3
Mode extension : CM (complete main)
Format settings, Endianness : Big
Codec ID : A_AC3
Duration : 1h 55mn
Bit rate mode : Constant
Bit rate : 640 Kbps
Channel(s) : 6 channels
Channel positions : Front: L C R, Side: L R, LFE
Sampling rate : 48.0 KHz
Bit depth : 16 bits
Compression mode : Lossy
Stream size : 529 MiB (12%)
Title : Лицензия
Language : Russian
Default : Yes
Forced : No
Audio #2
ID : 3
Format : AC-3
Format/Info : Audio Coding 3
Mode extension : CM (complete main)
Format settings, Endianness : Big
Codec ID : A_AC3
Duration : 1h 55mn
Bit rate mode : Constant
Bit rate : 640 Kbps
Channel(s) : 6 channels
Channel positions : Front: L C R, Side: L R, LFE
Sampling rate : 48.0 KHz
Bit depth : 16 bits
Compression mode : Lossy
Stream size : 529 MiB (12%)
Title : Original
Language : English
Default : No
Forced : No
Text #1
ID : 4
Format : UTF-8
Codec ID : S_TEXT/UTF8
Codec ID/Info : UTF-8 Plain Text
Title : BD RUS
Language : Russian
Default : No
Forced : No
Text #2
ID : 5
Format : UTF-8
Codec ID : S_TEXT/UTF8
Codec ID/Info : UTF-8 Plain Text
Title : Full
Language : English
Default : No
Forced : No
Text #3
ID : 6
Format : UTF-8
Codec ID : S_TEXT/UTF8
Codec ID/Info : UTF-8 Plain Text
Title : SDH-Colored
Language : English
Default : No
Forced : No
Text #4
ID : 7
Format : UTF-8
Codec ID : S_TEXT/UTF8
Codec ID/Info : UTF-8 Plain Text
Title : SDH
Language : English
Default : No
Forced : No
Menu
00:00:00.000 : en:(01)00:00:00:000
00:06:33.643 : en:(02)00:06:33:643
00:15:40.939 : en:(03)00:15:40:939
00:19:50.439 : en:(04)00:19:50:439
00:26:22.706 : en:(05)00:26:22:706
00:33:08.111 : en:(06)00:33:08:111
00:39:14.310 : en:(07)00:39:14:310
00:45:41.697 : en:(08)00:45:41:697
00:50:07.170 : en:(09)00:50:07:170
00:58:59.494 : en:(10)00:58:59:494
01:06:44.834 : en:(11)01:06:44:834
01:13:51.134 : en:(12)01:13:51:134
01:21:04.359 : en:(13)01:21:04:359
01:27:58.523 : en:(14)01:27:58:523
01:35:35.187 : en:(15)01:35:35:187
01:42:14.878 : en:(16)01:42:14:878
01:55:35.511 : en:(17)01:55:35:511
Download / Скачать

Хотите скачать бесплатно? Зарегистрируйтесь на сайте (ссылка на регистрацию). Pirat.ca - самый быстрый торрент трекер в рунете!

Как скачивать  ·   Что такое торрент  ·   Рейтинг и ограничения

Пост 12-Июн-2014 19:07 (спустя 4 часа)

Топик был перенесен из форума Зарубежное Кино (Трюм) в форум Новинки (BD/HDTV/DVD)
kugesan
 

megaToxa

Морской Волк

Пост 12-Июн-2014 20:43 (спустя 5 часов)

[Q] 

Мне понравился! Спасибо!

_________________
[Профиль]  [ЛС] 

Murzik

Штурман

Пост 12-Июн-2014 21:34 (спустя 50 минут)

[Q] 

Смотрится на одном дыхании. :)
Я вот о чем подумал, когда они совсем постареют (Сталоне и Арне), кто придёт им на смену? :( !COOL!
[Профиль]  [ЛС] 

malefik36

Морской Волк

Пост 15-Июн-2014 05:00 (спустя 2 дня 7 часов)

[Q] 

а кто заменит мадонну и пугачеву???
новая кровь найдет дорогу.
[Профиль]  [ЛС] 

sevensv

Легенда

4095

Пост 23-Июн-2014 22:53 (спустя 8 дней)

[Q] 

Мне понравилось Лови бочку
[Профиль]  [ЛС] 

metafizik

Морской Волк

87

Пост 29-Июн-2014 11:22 (спустя 5 дней)

[Q] 

большое спасибо, давно собирался посмотреть!
Автору респект!!!
[Профиль]  [ЛС] 

sonyps

Морской Волк

Пост 13-Июл-2014 14:09 (спустя 14 дней)

[Q] 

Отличный фильм!!! Слай и Арни как всегда на высоте!!! Всем бы так выглядеть в их годы. Хорошее кино!!!
[Профиль]  [ЛС] 

Old Bestof

Корсар

Пост 15-Июл-2014 23:18 (спустя 2 дня 9 часов)

[Q] 

Круто! Ждем новых совместных работ!
[Профиль]  [ЛС] 

koljan-2008

Флибустьер

5

Пост 06-Июл-2018 14:20 (спустя 3 года 11 месяцев)

[Q] 

Вернитесь, пожалуйста, на раздачу! Хочу фильмец этот глянуть :-)

_________________
Нужно лишь верить в мечту. Искренне верить! И тогда всё получится!
[Профиль]  [ЛС] 
Показать сообщения:    
Ответить на тему

Текущее время: Сегодня 03:17

Часовой пояс: GMT + 4



Вы не можете начинать темы
Вы не можете отвечать на сообщения
Вы не можете редактировать свои сообщения
Вы не можете удалять свои сообщения
Вы не можете голосовать в опросах
Вы не можете прикреплять файлы к сообщениям
Вы не можете скачивать файлы

Майнать ▼