Чёрная Пантера / Black Panther (Райан Куглер / Ryan Coogler) [2018 г., фантастика, боевик, приключения, BDRip-AVC] Dub Sub (Rus)

Ответить на тему
 
Автор
Сообщение

Пост 11-Май-2018 09:57

[Q] 

AlexDjas

Гроза морей

--Чёрная Пантера / Black Panther--«Да здравствует король»-- Производство: США
Год выпуска: 2018 г.
Жанр: фантастика, боевик, приключения
Продолжительность: 02:14:33
Мировая премьера: 29 января 2018
Российская премьера: 26 февраля 2018, «WDSSPR»
Перевод: Профессиональный (полное дублирование) [iTunes]
Режиссёр: Райан Куглер / Ryan Coogler--В ролях: Чедвик Боузман, Майкл Б. Джордан, Лупита Нионго, Данай Джекесай Гурира, Мартин Фриман, Дэниэл Калуя, Летишиа Райт, Уинстон Дьюк, Стерлинг К. Браун, Анджела Бассетт--Описание: С первого взгляда можно решить, что Ваканда — обычная территория дикой Африки, но это не так. Здесь, в недрах пустынных земель, скрываются залежи уникального металла, способного поглощать вибрацию. Многие пытались добраться до него, разоряя всё на своём пути и принося смерть аборигенам, но каждый раз таинственный дух саванны — Чёрная Пантера — вставал на защиту угнетённых.
Спустя много лет беда снова приходит в Ваканду, и в этот раз враг заручился поддержкой современных технологий. Когда шансов почти не остаётся, Т`Чалла, молодой принц Ваканды, узнаёт, что именно ему предстоит возродить легенду и продолжить вечную борьбу, надев маску Чёрной Пантеры.-- Качество видео: BDRip-AVC
Контейнер: MKV
Видео кодек: MPEG4 AVC
Аудио кодек: AC3
Видео: H.264/AVC, 1152x482 (2.40:1), 3280 kbps, 23.976 fps, 0.246 bit/pixel
Аудио: AC3 Dolby Digital, 3/2 (L,C,R,l,r) + LFE ch, 48.0 KHz, 384 Kbps - Русский
Аудио #2: AC3 Dolby Digital, 2/0 (L,R) ch, 48 kHz, 192 kbps - Украинский
Аудио #3: AC3 Dolby Digital, 3/2 (L,C,R,l,r) + LFE ch, 48.0 KHz, 448 Kbps - Английский
Cубтитры:Русские (Форсированные, Полные,Полные (Focs))
Формат субтитров: softsub (SRT)
Общее
Уникальный идентификатор : 221972522580921460780115277946322536591 (0xA6FE5A518EDB61AA00E75EF0D62DC88F)
Полное имя : D:\торрент\Black Panther_2018_BDRip_[pirat.ca].mkv
Формат : Matroska
Версия формата : Version 4 / Version 2
Размер файла : 4,05 Гбайт
Продолжительность : 2 ч. 14 м.
Общий поток : 4301 Кбит/сек
Название фильма : Black Panther_2018-=AlexDjas=-
Дата кодирования : UTC 2018-05-11 05:30:27
Программа кодирования : mkvmerge v22.0.0 ('At The End Of The World') 64-bit
Библиотека кодирования : libebml v1.3.5 + libmatroska v1.4.8
Обложка : Yes
Attachments : cover.jpg
Видео
Идентификатор : 1
Формат : AVC
Формат/Информация : Advanced Video Codec
Профиль формата : [email protected]
Настройки формата : CABAC / 12 Ref Frames
Параметр CABAC формата : Да
Параметр RefFrames формата : 12 кадров
Идентификатор кодека : V_MPEG4/ISO/AVC
Продолжительность : 2 ч. 14 м.
Битрейт : 3280 Кбит/сек
Ширина : 1152 пикселя
Высота : 482 пикселя
Соотношение сторон : 2,40:1
Режим частоты кадров : Постоянный
Частота кадров : 23,976 (24000/1001) кадра/сек
Цветовое пространство : YUV
Субдискретизация насыщенности : 4:2:0
Битовая глубина : 8 бит
Тип развёртки : Прогрессивная
Бит/(Пиксели*Кадры) : 0.246
Размер потока : 3,08 Гбайт (76%)
Заголовок : Black Panther_2018-=AlexDjas=-
Библиотека кодирования : x264 core 155 r2901 7d0ff22
Настройки программы : cabac=1 / ref=12 / deblock=1:-2:-1 / analyse=0x3:0x113 / me=umh / subme=10 / psy=1 / psy_rd=1.05:0.01 / mixed_ref=1 / me_range=32 / chroma_me=1 / trellis=2 / 8x8dct=1 / cqm=0 / deadzone=21,11 / fast_pskip=0 / chroma_qp_offset=-3 / threads=6 / lookahead_threads=1 / sliced_threads=0 / nr=0 / decimate=1 / interlaced=0 / bluray_compat=0 / constrained_intra=0 / bframes=13 / b_pyramid=2 / b_adapt=2 / b_bias=0 / direct=1 / weightb=1 / open_gop=0 / weightp=2 / keyint=250 / keyint_min=23 / scenecut=40 / intra_refresh=0 / rc_lookahead=60 / rc=crf / mbtree=0 / crf=16.8 / qcomp=0.70 / qpmin=0 / qpmax=69 / qpstep=4 / vbv_maxrate=50000 / vbv_bufsize=62500 / crf_max=0.0 / nal_hrd=none / filler=0 / ip_ratio=1.40 / pb_ratio=1.30 / aq=3:0.85
Язык : English
Default : Да
Forced : Нет
Аудио #1
Идентификатор : 2
Формат : AC-3
Формат/Информация : Audio Coding 3
Идентификатор кодека : A_AC3
Продолжительность : 2 ч. 14 м.
Вид битрейта : Постоянный
Битрейт : 384 Кбит/сек
Каналы : 6 каналов
Расположение каналов : Front: L C R, Side: L R, LFE
Частота : 48,0 КГц
Частота кадров : 31,250 кадров/сек (1536 SPF)
Битовая глубина : 16 бит
Метод сжатия : С потерями
Размер потока : 370 Мбайт (9%)
Заголовок : iTunes
Язык : Russian
ServiceKind/String : Complete Main
Default : Да
Forced : Нет
Аудио #2
Идентификатор : 3
Формат : AC-3
Формат/Информация : Audio Coding 3
Идентификатор кодека : A_AC3
Продолжительность : 2 ч. 14 м.
Вид битрейта : Постоянный
Битрейт : 192 Кбит/сек
Каналы : 2 канала
Расположение каналов : Front: L R
Частота : 48,0 КГц
Частота кадров : 31,250 кадров/сек (1536 SPF)
Битовая глубина : 16 бит
Метод сжатия : С потерями
Размер потока : 185 Мбайт (4%)
Заголовок : Дубляж
Язык : Ukrainian
ServiceKind/String : Complete Main
Default : Нет
Forced : Нет
Аудио #3
Идентификатор : 4
Формат : AC-3
Формат/Информация : Audio Coding 3
Идентификатор кодека : A_AC3
Продолжительность : 2 ч. 14 м.
Вид битрейта : Постоянный
Битрейт : 448 Кбит/сек
Каналы : 6 каналов
Расположение каналов : Front: L C R, Side: L R, LFE
Частота : 48,0 КГц
Частота кадров : 31,250 кадров/сек (1536 SPF)
Битовая глубина : 16 бит
Метод сжатия : С потерями
Размер потока : 431 Мбайт (10%)
Заголовок : Original
Язык : English
ServiceKind/String : Complete Main
Default : Нет
Forced : Нет
Текст #1
Идентификатор : 5
Формат : UTF-8
Идентификатор кодека : S_TEXT/UTF8
Идентификатор кодека/Информация : UTF-8 Plain Text
Продолжительность : 2 ч. 12 м.
Битрейт : 2 бит/сек
ElementCount : 77
Размер потока : 2,20 Кбайт (0%)
Заголовок : Форсированные
Язык : Russian
Default : Да
Forced : Нет
Текст #2
Идентификатор : 6
Формат : UTF-8
Идентификатор кодека : S_TEXT/UTF8
Идентификатор кодека/Информация : UTF-8 Plain Text
Продолжительность : 2 ч. 14 м.
Битрейт : 64 бит/сек
ElementCount : 1460
Размер потока : 63,8 Кбайт (0%)
Заголовок : Полные
Язык : Russian
Default : Нет
Forced : Нет
Текст #3
Идентификатор : 7
Формат : UTF-8
Идентификатор кодека : S_TEXT/UTF8
Идентификатор кодека/Информация : UTF-8 Plain Text
Продолжительность : 2 ч. 14 м.
Битрейт : 69 бит/сек
ElementCount : 1566
Размер потока : 68,5 Кбайт (0%)
Заголовок : Полные (Focs)
Язык : Russian
Default : Нет
Forced : Нет
Меню
00:00:00.000 : en:The Story Of Home
00:06:56.291 : en:Succession To The Throne
00:12:02.805 : en:"Time To Be King"
00:19:12.360 : en:"Let The Challenge Begin"
00:28:32.961 : en:The Ancestral Plane
00:33:11.698 : en:Extradition
00:40:57.497 : en:Casino Mission
00:48:34.036 : en:Busan Car Chase
00:53:46.098 : en:Interrogation
01:01:57.339 : en:Sacrifices
01:08:33.026 : en:Blood Rights
01:16:46.769 : en:Ritual Combat
01:22:24.022 : en:"Burn It All"
01:31:21.434 : en:Jabariland
01:41:15.361 : en:Two Panthers
01:50:56.483 : en:The Battle For Wakanda
01:59:16.941 : en:A New Wakanda
02:02:43.648 : en:End Credits
Download / Скачать

Хотите скачать бесплатно? Зарегистрируйтесь на сайте (ссылка на регистрацию). Pirat.ca - самый быстрый торрент трекер в рунете!

Как скачивать  ·   Что такое торрент  ·   Рейтинг и ограничения

SM 96

Легенда

Пост 11-Май-2018 17:12 (спустя 7 часов)

[Q] 

Автору респект!!! Лови бочку
[Профиль]  [ЛС] 

boowww

Корсар

Пост 12-Май-2018 01:28 (спустя 8 часов)

[Q] 

Кино про негров и для негров.
[Профиль]  [ЛС] 

alersander

Корсар

Пост 12-Май-2018 10:06 (спустя 8 часов)

[Q] 

Посмотрим. Друзья говорили что фильм вроде нормальный для разового просмотра. Лови бочку
[Профиль]  [ЛС] 

feldorius

Корсар

Пост 12-Май-2018 11:06 (спустя 1 час)

[Q] 

Фильм про тайные замесы в Африке?
[Профиль]  [ЛС] 

bodomsaratau

Шкипер

Пост 12-Май-2018 12:48 (спустя 1 час 41 минута)

[Q] 

Спасибо!!!
ждал дубляж
[Профиль]  [ЛС] 

Мерзавец

Морской Волк

Пост 12-Май-2018 13:06 (спустя 18 минут)

[Q] 

осилить бы, минут надцать, просмотра :)
[Профиль]  [ЛС] 

Skala973

Флибустьер

Пост 12-Май-2018 13:08 (спустя 1 минута)

[Q] 

За раздачу спасибо. Релизёр старался и выжал из исходника всё по максимуму!
Но фильм... Ребята... фильм такое позорное КЮ!!!
Начать и идеи: "металл поглощающий вибрацию".... Всё! Высосали из пальца! Теперь можно "Слона раздувать".
А тема супергероев, ну так уже изъезжана, что по одному уже не работает, их вот пачками собирают в одном фильме, и друг с другом стравливают.
Вообще, как в смешном калейдоскопе:
Терминатора против Хищника
Чужие против суперменов
Джедаи против Кинг Конгов
Ну, и неужели кого-то торкают такие мутные темы? Даже один раз их смотреть тошно.
В общем: за раздачу спасибо, а фильм - "элементарное КЮ".
[Профиль]  [ЛС] 

redfield

Морской Волк

Пост 14-Май-2018 20:04 (спустя 2 дня 6 часов)

[Q] 

СОпли с сахаром в жанре Марвел
[Профиль]  [ЛС] 

Alhimik

Шкипер

17

Пост 17-Май-2018 00:27 (спустя 2 дня 4 часа)

[Q] 

А как же расизм?! среди ключевых героев нет белых людей, это же явный расизм со стороны черножо негров!
[Профиль]  [ЛС] 

Mustafa Sazont

Корсар

Пост 17-Май-2018 09:46 (спустя 9 часов)

[Q] 

825290Кино про негров и для негров.
В точку! Нынче в Голливуде мода на голубков и нигеров.
[Профиль]  [ЛС] 

Sakoru

Корсар

Пост 30-Май-2018 18:21 (спустя 13 дней)

[Q] 

Моментами поржать можно. А так в целом предсказуемый финал. Спасибо!!!

_________________
[Профиль]  [ЛС] 

tyulen29

Шкипер

Пост 06-Июн-2018 08:42 (спустя 6 дней)

[Q] 

хорший фильм.лучше чем пауки и прочее. Супер! Мне понравилось
[Профиль]  [ЛС] 

Gari4

Флибустьер

Пост 07-Июн-2018 17:45 (спустя 1 день 9 часов)

[Q] 

Ждал дубляж (спасибо!), хотя уже посмотрел в ужасном качестве.
Что могу сказать? В дубляже лучше.
А по сути?
Ну окей, я понимаю все эти традиции, честь и гордость отсталого народа, который оказывается может править миром, но не правит. То есть вот в Африке голод, нищета, наркотики, а эти такие - у нас есть металл - все ок. То есть страна десятого мира вдруг обладает такими технологиями? Ну окей...
Да, круто - закрыть собой гранату и встать в бой, но вот эти все мстители... (я обожаю марвел, но..) создали вроде пантеру и пантеру.
Вроде все по одиночке они тащат, как бустер в доте. Вроде и обычный кэп может уделать кого-угодно, но все равно какая-то хрень.
И нет, фильм не плохой - смотреть его можно, и даже нужно, ибо Марвел опять же...
Но все же мой личный рейтинг все ниже и ниже дает оценки этим фильмам...

_________________
РЕБЯТ!! Подпишитесь на канал! Вам все равно, а мне приятно))
https://www.youtube.com/channel/UCHdnAvKKhkxeJvg3DQ...ew_as=subscriber
[Профиль]  [ЛС] 

silwendil

Флибустьер

741

Пост 04-Июл-2018 03:30 (спустя 26 дней)

[Q] 

Ребята, вы действительно собираетесь комиксы обсуждать с точки зрения реального мира? Кого из вас зовут Леонард, а кого Шелдон? cb
[Профиль]  [ЛС] 

silwendil

Флибустьер

741

Пост 07-Июл-2018 01:51 (спустя 2 дня 22 часа)

[Q] 

Так, стоп! Кто такой сержант Бакки?
Что он делает в деревне сестры Пантеры? Почему у него нет левой руки?
Это флэшбэк? Стопудов! Вот что значит, нужно головой думать, а не ... Если бы не малолетняя наивная сестра (не по годам, а по уму и не по интеллекту, а по мудрости, - дура-дурой!), столько народу бы выжило! Ну ладно, пусть так, хоть немного логики добавляет
ААА! Спасите! Я сам начал логику в комиксах искать! ca
ЗЫ Кстати, интересно, сколько народу посмотрели сцены посреди финальных титров? А сколько из них посмотрели сцену ПОСЛЕ титров? bm
[Профиль]  [ЛС] 

shoroh

Морской Волк

Пост 14-Июл-2018 23:09 (спустя 7 дней)

[Q] 

Спасибо!!!
[Профиль]  [ЛС] 

exelero07

Гроза морей

Пост 18-Июл-2018 23:38 (спустя 4 дня)

[Q] 

Очередной проходной фильм от Марвел
[Профиль]  [ЛС] 
Показать сообщения:    
Ответить на тему

Текущее время: Сегодня 23:01

Часовой пояс: GMT + 4



Вы не можете начинать темы
Вы не можете отвечать на сообщения
Вы не можете редактировать свои сообщения
Вы не можете удалять свои сообщения
Вы не можете голосовать в опросах
Вы не можете прикреплять файлы к сообщениям
Вы не можете скачивать файлы

Майнать ▼