Лео и Тиг / Leo and Tig / Сезон: 1 / Серии: 1-20 из 26 (Александр Люткевич/Aleksandr Lutkevich) [2016 г., мультфильм, детский, WEB-DLRip, 720p](обновляемая)

Ответить на тему
 
Автор
Сообщение

Пост 03-Мар-2018 15:21

[Q] 

AlexDjas

Флибустьер

--Лео и Тиг / Leo and Tig-- Производство: Россия (Анимационная студия "Паровоз")
Режиссёр: Александр Люткевич/Aleksandr Lutkevich
Жанр: мультфильм, детский
Год выпуска: 2016 г.
Продолжительность: 00:11:00 1 серия
Российская премьера: 17 сентября 2017 г.
Перевод: Не требуется
Роли озвучивали: Елена Шульман, Диомид Виноградов, Ксения Кутепова, Агния Кузнецова, Александра Урсуляк, Дмитрий Назаров, Наталия Медведева, Даниил Эльдаров--Описание: Это история про двух друзей — леопарда-детёныша по имени Лео и тигрёнка по имени Тиг. Попадая в разные увлекательные истории, друзья учатся взаимопомощи, доброте и бережному отношению к природе, а также открывают для себя и зрителей удивительный мир Приморского края и его богатейшую природу.--
Качество видео: WEB-DLRip
Контейнер: MKV
Стандарт разрешения: 720p
Видео кодек: AVC
Аудио кодек: AAC
Видео: AVC, 1280x720, ~2500 kbps
Аудио: AAC, 2 ch, 192 Kbps
Cубтитры: отсутствуют
Общее
Уникальный идентификатор : 183796059585779860484123860878000071138 (0x8A45D55F0DE628B2A30C79FC205321E2)
Полное имя : D:\Мультфильмы\Пиратка\Leo and Tig[pirat.ca]\01_Шкура солнца.mkv
Формат : Matroska
Версия формата : Version 4 / Version 2
Размер файла : 104 Мбайт
Продолжительность : 11 м. 0 с.
Общий поток : 1315 Кбит/сек
Дата кодирования : UTC 2016-11-26 21:35:43
Программа кодирования : mkvmerge v9.5.0 ('Quiet Fire') 32bit
Библиотека кодирования : libebml v1.3.4 + libmatroska v1.4.5
Видео
Идентификатор : 1
Формат : AVC
Формат/Информация : Advanced Video Codec
Профиль формата : Main@L3.1
Настройки формата : CABAC / 3 Ref Frames
Параметр CABAC формата : Да
Параметр RefFrames формата : 3 кадра
Идентификатор кодека : V_MPEG4/ISO/AVC
Продолжительность : 11 м. 0 с.
Битрейт : 1187 Кбит/сек
Ширина : 1280 пикселей
Высота : 720 пикселей
Соотношение сторон : 16:9
Режим частоты кадров : Постоянный
Частота кадров : 25,000 кадров/сек
Цветовое пространство : YUV
Субдискретизация насыщенности : 4:2:0
Битовая глубина : 8 бит
Тип развёртки : Прогрессивная
Бит/(Пиксели*Кадры) : 0.052
Размер потока : 93,5 Мбайт (90%)
Default : Да
Forced : Нет
Цветовой диапазон : Limited
Основные цвета : BT.709
Характеристики трансфера : BT.709
Коэффициенты матрицы : BT.709
Аудио
Идентификатор : 2
Формат : AAC
Формат/Информация : Advanced Audio Codec
Профиль формата : LC
Идентификатор кодека : A_AAC-2
Продолжительность : 11 м. 0 с.
Битрейт : 126 Кбит/сек
Каналы : 2 канала
Расположение каналов : Front: L R
Частота : 44,1 КГц
Частота кадров : 43,066 кадра/сек (1024 SPF)
Метод сжатия : С потерями
Размер потока : 9,90 Мбайт (10%)
01_Шкура солнца.
02_Таинственная пещера.
03_Таёжная сказка.
04_Осень в тайге.
05_Серебряная река.
06_Красный олень.
07_Самое ценное.
08_Высший пилотаж.
09_Орлиная скала.
10_Старый друг.
11_Пробуждение дракона.
12_История героя.
13_До свидания, Феофан.
14_Подарок духа тайги.
15_Маленькая вьюжка.
16_Маленький подвиг.
17_Долой пернатых.
18_Подкидыш
19_Пропавшее вдохновение.
20_Морской бой.
Раздача ведётся путём добавления новых серий; при каждом добавлении создаётся новый торрент.
Чтобы начать докачку новой серии, пользователям необходимо сделать следующее:
1. остановить скачивание,
2. удалить старый торрент у себя из клиента (старые серии удалять не надо),
3. скачать новый торрент и запустить его у себя в клиенте вместо старого, при этом указать клиенту путь в старую папку, куда и должно происходить скачивание новых серий.
Ваш клиент при этом должен произвести хеширование (проверку) старой папки (если не производит сам - помогите ему сделать это), и будет докачивать только те серии которых у вас ещё нет. Старые серии при этом не удаляются, а продолжают раздаваться!
Eсли вы уже удалили старые серии, то предотвратить повторную закачку старых серий можно, отжав галочку в соответствующих местах при запуске нового торрента. По возможности, желательно не удалять старые серии как можно дольше, чтобы релизёр не столько продолжал раздавать старые серии, а смог сконцентрироваться на новых.
Совет для тех, кто не хочет ждать перехеширования:
Создайте ещё одну папку рядом с папкой сериала (рядом, а не в ней!!!). Каждую новую серию после удачной загрузки копируйте в новую папку так чтобы ваша основная папка всегда была пуста. Когда ваш новый торрент предложит вам закачать все файлы, выберете только последнюю. Для сидирования же укажите адрес новой папки.
Как закачать отдельный файл из торрента или докачать ранее пропущенные файлы торрента!
1. Открыть торрент
2. Снять галки с тех файлов торрента, которые мы не хотим закачивать. Оставляем только на нужных нам файлах (файле).
3. Нажать О.К.
В клиенте utorrent
Инструкция
1) Открыть торрент

2) Снять галки с тех файлов торрента, которые мы не хотим закачивать:
* либо вручную, снимая с каждого файла галку( скрин №1)
* либо, нажав кнопку "Снять метки (Select None)", сняв сразу со всех файлов(скрин №2)
№1

№2

Оставляем только на нужных нам файлах (файле).

3)Нажать О.К
--Добавлены 19 и 20 серии.--
Download / Скачать

Хотите скачать бесплатно? Зарегистрируйтесь на сайте (ссылка на регистрацию). Pirat.ca - самый быстрый торрент трекер в рунете!

Как скачивать  ·   Что такое торрент  ·   Рейтинг и ограничения



Последний раз редактировалось: AlexDjas (2018-03-04 09:03), всего редактировалось 1 раз

AlexDjas ®

Флибустьер

5461

Пост 07-Июл-2018 16:12 (спустя 4 месяца 4 дня)

[Q] 

Добавлены 19 и 20 серии.

_________________
- Один терапевт - это 1024 гигапевта, или 1048576 мегапевтов!
[Профиль]  [ЛС] 
Показать сообщения:    
Ответить на тему

Текущее время: Сегодня 03:15

Часовой пояс: GMT + 4



Вы не можете начинать темы
Вы не можете отвечать на сообщения
Вы не можете редактировать свои сообщения
Вы не можете удалять свои сообщения
Вы не можете голосовать в опросах
Вы не можете прикреплять файлы к сообщениям
Вы не можете скачивать файлы

Майнать ▼