Каникулы президента (Илья Шерстобитов) [2018 г., комедия, TeleSynch]

Ответить на тему
 
Автор
Сообщение

Пост 31-Мар-2018 13:42

[Q] 

AlexDjas

Флибустьер

--Каникулы президента--«Есть дороги, а есть пути!»-- Производство: Россия
Режиссёр: Илья Шерстобитов
Жанр: комедия
Год выпуска: 2018 г.
Продолжительность: 01:36:55
Российская премьера: 29 марта 2018, «Люксор»--В ролях: Дмитрий Грачев, Анна Цуканова-Котт, Настасья Самбурская, Евгений Сидихин, Кирилл Васильев, Гоша Куценко, Дмитрий Дибров, Роза Хаируллина, Роман Попов, Владимир Носик--Описание: Устав от рутины, Президент решает отправиться на каникулы в гордом одиночестве, чтобы отдохнуть в Крыму, а заодно свободно пообщаться с народом. Понимая, что остаться инкогнито и улизнуть от заботливых коллег будет сложно, он прибегает к услугам гримера. Но его новый облик точь-в-точь совпадает с наружностью Валерия из N-ска, который скрывается от коллекторов по путевке матери в крымском санатории…--
Качество видео: TeleSynch
Контейнер: MKV
Видео кодек: MPEG4 AVC
Аудио кодек: AC3
Видео: AVC/H.264, 1280x528, ~3305 Kbps, 23.976 fps
Аудио: AC3, 2 ch, 384 Kbps, 48 kHz
Cубтитры: отсутствуют
Общее
Уникальный идентификатор : 183855388473263209872983890450988298176 (0x8A514282E478B9BF987C802BF94E6FC0)
Полное имя : G:\Фильмы\Каникулы президента_TS_[pirat.ca].mkv
Формат : Matroska
Версия формата : Version 2
Размер файла : 2,50 Гбайт
Продолжительность : 1 ч. 36 м.
Режим общего битрейта : Переменный
Общий поток : 3688 Кбит/сек
Дата кодирования : UTC 2018-03-30 17:39:34
Программа кодирования : mkvmerge v8.3.0 ('Over the Horizon') 64bit
Библиотека кодирования : libebml v1.3.1 + libmatroska v1.4.2
Видео
Идентификатор : 1
Формат : AVC
Формат/Информация : Advanced Video Codec
Профиль формата : High@L4.1
Настройки формата : CABAC / 4 Ref Frames
Параметр CABAC формата : Да
Параметр RefFrames формата : 4 кадра
Идентификатор кодека : V_MPEG4/ISO/AVC
Продолжительность : 1 ч. 36 м.
Вид битрейта : Переменный
Битрейт : 3303 Кбит/сек
Максимальный битрейт : 3500 Кбит/сек
Ширина : 1280 пикселей
Высота : 528 пикселей
Соотношение сторон : 2,40:1
Режим частоты кадров : Постоянный
Частота кадров : 23,976 (24000/1001) кадра/сек
Стандарт вещания : Component
Цветовое пространство : YUV
Субдискретизация насыщенности : 4:2:0
Битовая глубина : 8 бит
Тип развёртки : Прогрессивная
Бит/(Пиксели*Кадры) : 0.204
Размер потока : 2,24 Гбайт (90%)
Default : Да
Forced : Нет
Цветовой диапазон : Limited
Основные цвета : BT.709
Характеристики трансфера : BT.709
Коэффициенты матрицы : BT.709
Аудио
Идентификатор : 2
Формат : AC-3
Формат/Информация : Audio Coding 3
Идентификатор кодека : A_AC3
Продолжительность : 1 ч. 36 м.
Вид битрейта : Постоянный
Битрейт : 384 Кбит/сек
Каналы : 2 канала
Расположение каналов : Front: L R
Частота : 48,0 КГц
Частота кадров : 31,250 кадров/сек (1536 SPF)
Битовая глубина : 16 бит
Метод сжатия : С потерями
Размер потока : 266 Мбайт (10%)
ServiceKind/String : Complete Main
Default : Да
Forced : Нет
--Внимание!!! Присутствует реклама!!--
Download / Скачать

Хотите скачать бесплатно? Зарегистрируйтесь на сайте (ссылка на регистрацию). Pirat.ca - самый быстрый торрент трекер в рунете!

Как скачивать  ·   Что такое торрент  ·   Рейтинг и ограничения

usya5

Корсар

Пост 31-Мар-2018 19:24 (спустя 5 часов)

[Q] 

Спасибо, посмотрим Лови бочку
[Профиль]  [ЛС] 

PRIKOLIST21

Лоцман

Пост 01-Апр-2018 15:33 (спустя 20 часов)

[Q] 

прикольный фильмец!советую....
[Профиль]  [ЛС] 

usya5

Корсар

Пост 01-Апр-2018 19:33 (спустя 4 часа)

[Q] 

Не супер, конечно, но разок глянуть можно...
[Профиль]  [ЛС] 

my1979

Корсар

Пост 01-Апр-2018 19:49 (спустя 15 минут)

[Q] 

для "ТНТшных" фильмов - этот хороший. Только хотелось бы побольше Грачева...
[Профиль]  [ЛС] 

Skat.56

Легенда

453

Пост 02-Апр-2018 01:23 (спустя 5 часов)

[Q] 

Коменты еще не закрыли?
Ну вот выразю свое мнение.
Качество видео смотрибельно, а аудио слухабельно, реклама казино старая- неинтересная.
Сюжет никакой, как в принципе и предполагалось. Юмор, блин, юмор? Это ирония, еще и на злободневные темы. Так что на половине фильма плюнул и ушел курить. Вернулся фильм кончился, мир спасли.
Думаю некоторым широким массам населения стран СНГ, фильм зайдет.
Лиццам имеющим нейтральную политическую ориентацию фильм покажется откровенно скучным, ибо целиком завязан на личностях, а сами персонажи обыграны плохо и не комично, личности не раскрыты, перед смешными местами с перекура не взывают.
Диагноз такой: Смотреть с девушкой не рекомендуется, с детьми бестолку, с родителями себе дороже.
Но не все так плохо, под ящик водки и душевную компанию, вполне годно! Только запаситесь зеленкой, и уберите ножи, ибо мнения зрителей могут разделиться, а раны обрабатывать нужно.
Оценка три из десяти и то только за то что, дало возможность написать этот комментарий. На любителя Раздающему респект!

_________________
[Профиль]  [ЛС] 

zvezda_2s

Флибустьер

Пост 03-Апр-2018 19:18 (спустя 1 день 17 часов)

[Q] 

Смотрел. Поржал.
[Профиль]  [ЛС] 

Gari4

Флибустьер

Пост 04-Апр-2018 02:19 (спустя 7 часов)

[Q] 

Путин настолько тупой, что не знает как устроен мир, не понимая, что имеет ввиду гаишник, под предлогом "на месте" разобраться. Он не смотрит ютуб и верит, что за него голосовали все (ах да...еще момент - когда фильм начали снимать? Явно не 18 марта, думай голова - думай!), а остальные просто не ходили на выборы (а как иначе-то? Иначе фильм не пропустят!!!).
Охрана президента настолько тупая, что потеряли главного "царя", перепутав с другим мужиком.
Правительство настолько тупое....что выполняет указы без официальных документов.
Банки просто мирно выполняют приказы, понимая, и, смирившись, с тем, что теперь они просто банкроты.
Женщина из универа...Самбурская (ладно, она стала не красивая как по мне, под мальчика - это ладно), которая шпион, засланный казачок, не может отличить Путина от другого мужика.
Создатели фильма настолько тупые, что считают - сделали маску, с которой можно мыться, но соленая вода - это конечно ужас...не пот, в Краснодарском крае, не щелочь от шампуня и т д и т п, а именно морская вода...
И это не мое даже мнение (хотя есть тут доля истины), а мнение создателей фильма - ибо именно это и многое другое нелепое, несет в себе фильм, дабы получить денег и привет от кремля....
Отказать

_________________
РЕБЯТ!! Подпишитесь на канал! Вам все равно, а мне приятно))
https://www.youtube.com/channel/UCHdnAvKKhkxeJvg3DQ...ew_as=subscriber
[Профиль]  [ЛС] 

ciddharta

Штурман

Пост 21-Апр-2018 14:09 (спустя 17 дней)

[Q] 

глупый, но местами смешной фильм, с "правильными" моментами , ну и конечно же назязыванием "мнения" под пивко сойдет , 2 раз попадется на экране тв смотреть не буду.
[Профиль]  [ЛС] 

Мания величия

Морской Волк

Пост 22-Апр-2018 23:36 (спустя 1 день 9 часов)

[Q] 

Спасибо буду смотреть (и тем кто помог дораздать тоже отдельное спасибо!!!)

_________________
[Профиль]  [ЛС] 

bobkoff

Лоцман

Пост 09-Май-2018 18:01 (спустя 16 дней)

[Q] 

спасибо за коменты, воздержусь от просмотра
[Профиль]  [ЛС] 

tyulen29

Шкипер

Пост 08-Июл-2018 09:58 (спустя 1 месяц 29 дней)

[Q] 

прикольно. Мне понравилось
[Профиль]  [ЛС] 

exelero07

Флибустьер

Пост Вчера 22:12 (спустя 12 дней)

[Q] 

ожидал большего, фильм так себе
[Профиль]  [ЛС] 
Показать сообщения:    
Ответить на тему

Текущее время: Сегодня 15:50

Часовой пояс: GMT + 4



Вы не можете начинать темы
Вы не можете отвечать на сообщения
Вы не можете редактировать свои сообщения
Вы не можете удалять свои сообщения
Вы не можете голосовать в опросах
Вы не можете прикреплять файлы к сообщениям
Вы не можете скачивать файлы

Майнать ▼