Славные пташки / PLOEY. You Never Fly Alone (Аудни Аусгейрссон / Árni Ásgeirsson) [2017 г., мультфильм, WEB-DL, 1080p] Dub

Ответить на тему
 
Автор
Сообщение

Пост 05-Июн-2018 14:47

[Q] 

AlexDjas

Гроза морей

--Славные пташки / PLOEY. You Never Fly Alone-- Производство: Исландия, Бельгия
Режиссёр: Аудни Аусгейрссон / Árni Ásgeirsson
Жанр: мультфильм
Год выпуска: 2017 г.
Продолжительность: 01:22:34
Мировая премьера: 2 февраля 2018
Российская премьера: 12 апреля 2018, «Наше Кино»
Перевод: Профессиональный (полное дублирование)
Роли озвучивали: Джэми Орам, Харриет Перринг, Иэн Стюарт Робертсон, Ричард Уиллс-Коттон, Торунн Эрна Клаузен, Томас Арнольд, Кайзер Ахтар, Дебби Чейзен, Донья Кролл, Грэхэм Йорк--Описание: Приключения маленького птенца Рыжика и куропатки-отшельника Гайрона. Судьба сводит их вместе, когда Рыжик, отстав от стаи, не смог улететь на юг. Рыжик уговаривает чудаковатого и вечно брюзжащего Гайрона показать ему дорогу в Райскую долину — тайное место в горах, где птицы могут переждать суровую зиму. Путь туда таит немало опасностей. Постепенно неунывающему Рыжику удается растопить сердце старого отшельника. Вместе эта парочка становится друг для друга настоящей семьей, которой по силам свернуть горы.-- Качество видео: WEB-DL
Контейнер: MKV
Стандарт разрешения: 1080p
Видео кодек: MPEG4 AVC
Аудио кодек: AC3
Видео: AVC/H.264, 1920x804, ~4524 kbps, 24.0 fps
Аудио: 48 kHz, AC3 Dolby Digital, 3/2 (L,C,R,l,r) + LFE ch, ~384 kbps
Cубтитры: отсутствуют
Общее
Уникальный идентификатор : 287183681522883666450748009181499987745 (0xD80D90AF889486E1288F52023D119721)
Полное имя : D:\торрент\PLOEY_2017_WEB-DL_1080p[pirat.ca].mkv
Формат : Matroska
Версия формата : Version 4 / Version 2
Размер файла : 2,83 Гбайт
Продолжительность : 1 ч. 22 м.
Общий поток : 4909 Кбит/сек
Дата кодирования : UTC 2018-06-05 10:14:19
Программа кодирования : mkvmerge v23.0.0 ('The Bride Said No') 64-bit
Библиотека кодирования : libebml v1.3.6 + libmatroska v1.4.9
Видео
Идентификатор : 1
Формат : AVC
Формат/Информация : Advanced Video Codec
Профиль формата : [email protected]
Настройки формата : CABAC / 5 Ref Frames
Параметр CABAC формата : Да
Параметр RefFrames формата : 5 кадров
Идентификатор кодека : V_MPEG4/ISO/AVC
Продолжительность : 1 ч. 22 м.
Битрейт : 4524 Кбит/сек
Ширина : 1920 пикселей
Высота : 804 пикселя
Соотношение сторон : 2,40:1
Режим частоты кадров : Постоянный
Частота кадров : 24,000 кадра/сек
Цветовое пространство : YUV
Субдискретизация насыщенности : 4:2:0
Битовая глубина : 8 бит
Тип развёртки : Прогрессивная
Бит/(Пиксели*Кадры) : 0.122
Размер потока : 2,61 Гбайт (92%)
Язык : English
Default : Да
Forced : Нет
Цветовой диапазон : Limited
Основные цвета : BT.709
Характеристики трансфера : BT.709
Коэффициенты матрицы : BT.709
Аудио
Идентификатор : 2
Формат : AC-3
Формат/Информация : Audio Coding 3
Идентификатор кодека : A_AC3
Продолжительность : 1 ч. 22 м.
Вид битрейта : Постоянный
Битрейт : 384 Кбит/сек
Каналы : 6 каналов
Расположение каналов : Front: L C R, Side: L R, LFE
Частота : 48,0 КГц
Частота кадров : 31,250 кадров/сек (1536 SPF)
Битовая глубина : 16 бит
Метод сжатия : С потерями
Задержка видео : -42 мс.
Размер потока : 227 Мбайт (8%)
Язык : Russian
ServiceKind/String : Complete Main
Default : Да
Forced : Нет
Download / Скачать

Хотите скачать бесплатно? Зарегистрируйтесь на сайте (ссылка на регистрацию). Pirat.ca - самый быстрый торрент трекер в рунете!

Как скачивать  ·   Что такое торрент  ·   Рейтинг и ограничения

SwordFish

Корсар

1670

Пост 13-Июн-2018 21:42 (спустя 8 дней)

[Q] 

Неплохой мульт с юморком. На разок посмотреть в самый раз
[Профиль]  [ЛС] 

Alexlogin

Гроза морей

106

Пост 08-Июл-2018 17:38 (спустя 24 дня)

[Q] 

Спасибо за раздачу
[Профиль]  [ЛС] 
Показать сообщения:    
Ответить на тему

Текущее время: Сегодня 20:03

Часовой пояс: GMT + 4



Вы не можете начинать темы
Вы не можете отвечать на сообщения
Вы не можете редактировать свои сообщения
Вы не можете удалять свои сообщения
Вы не можете голосовать в опросах
Вы не можете прикреплять файлы к сообщениям
Вы не можете скачивать файлы

Майнать ▼