Инструкции не прилагаются / No se Aceptan Devoluciones (Эухенио Дербес / Eugenio Derbez) [2013 г., драма, комедия, HDRip] MVO [Лицензия]

Ответить на тему
 
Автор
Сообщение

Пост 08-Ноя-2014 13:28

[Q] 

ara1205

-Инструкции не прилагаются / No se Aceptan Devoluciones-- Производство: Мексика
Год выпуска: 2013 г.
Жанр: драма, комедия
Продолжительность: 02:01:57
Перевод: Профессиональный (многоголосый, закадровый) [Лицензия]-Режиссер: Эухенио Дербес / Eugenio Derbez-В ролях: Уго Стиглиц, Эухенио Дербес, Гилда Джентиле, Нэнси Таира, Джессика Линдси, Сэмми Перез, Арселия Рамирес-Описание: Жизнь плейбоя из Акапулько резко меняется, когда на пороге его дома ему вручили грудного младенца со словами — «Это твоя дочь». Шесть лет ему потребовалось, чтобы найти мать девочки, которую он искал от Мехико до Лос-Анджелеса. Чтобы прокормить себя и новообретенную дочь, он устроился в Голливуд и стал ведущим каскадером. Но когда накануне очередного дня рождения девочки у порога его дома появляется настоящая мать Мэгги, он вдруг понимает, что может потерять своего лучшего друга, которыми они стали с девочкой за шесть лет.- -Качество видео: HDRip
Контейнер: AVI
Видео кодек: XviD
Аудио кодек: AC3
Видео: 720x400, 23,976 fps, 1260 kbps avg, 0.182 bit/pixel
Аудио: 48 kHz, AC3 Dolby Digital, 3/2 (L,C,R,l,r) + LFE ch, ~448 kbps
Cубтитры: отсутствуют-
Общее
Полное имя : C:\Users\Ромик\Pictures\Инструкции не прилагаются\Instrykcii.ne.prilagautsya.2014.P.HDRip.avi
Формат : AVI
Формат/Информация : Audio Video Interleave
Размер файла : 1,46 Гбайт
Продолжительность : 2 ч. 1 м.
Общий поток : 1718 Кбит/сек
Программа кодирования : VirtualDubMod 1.5.10.2 (build 2540/release)
Библиотека кодирования : VirtualDubMod build 2540/release
Видео
Идентификатор : 0
Формат : MPEG-4 Visual
Профиль формата : Advanced Simple@L5
Параметр BVOP формата : 2
Параметр QPel формата : Нет
Параметр GMC формата : Без точки перехода
Параметр матрицы формата : Default (MPEG)
Идентификатор кодека : XVID
Идентификатор кодека/Подсказка : XviD
Продолжительность : 2 ч. 1 м.
Битрейт : 1260 Кбит/сек
Ширина : 720 пикселей
Высота : 400 пикселей
Соотношение сторон : 16:9
Частота кадров : 23,976 кадра/сек
Цветовое пространство : YUV
Субдискретизация насыщенности : 4:2:0
Битовая глубина : 8 бит
Тип развёртки : Прогрессивная
Метод сжатия : С потерями
Бит/(Пиксели*Кадры) : 0.182
Размер потока : 1,07 Гбайт (73%)
Библиотека кодирования : XviD 1.2.1 (UTC 2008-12-04)
Аудио
Идентификатор : 1
Формат : AC-3
Формат/Информация : Audio Coding 3
Расширение режима : CM (complete main)
Параметр Endianness формата : Big
Идентификатор кодека : 2000
Продолжительность : 2 ч. 1 м.
Вид битрейта : Постоянный
Битрейт : 448 Кбит/сек
Каналы : 6 каналов
Расположение каналов : Front: L C R, Side: L R, LFE
Частота : 48,0 КГц
Битовая глубина : 16 бит
Метод сжатия : С потерями
Размер потока : 391 Мбайт (26%)
Выравнивание : Разделение по промежуткам
Продолжительность промежутка : 42 мс. (1,00 видеокадр)
Время предзагрузки промежутка : 500 мс.
-
-
Download / Скачать

Хотите скачать бесплатно? Зарегистрируйтесь на сайте (ссылка на регистрацию). Pirat.ca - самый быстрый торрент трекер в рунете!

Как скачивать  ·   Что такое торрент  ·   Рейтинг и ограничения

olipov

Легенда

Пост 08-Ноя-2014 13:57 (спустя 29 минут)

[Q] 

спасибо
[Профиль]  [ЛС] 

ro2s

Лоцман

Пост 08-Ноя-2014 16:08 (спустя 2 часа 10 минут)

[Q] 

как фильмец?
[Профиль]  [ЛС] 

берлин

Гроза морей

Пост 08-Ноя-2014 16:09 (спустя 1 минута)

[Q] 

Спасибо за работу!
[Профиль]  [ЛС] 

ANDOKU

Шкипер

Пост 08-Ноя-2014 17:43 (спустя 1 час 34 минуты)

[Q] 

Автору респект!!! Лови бочку
[Профиль]  [ЛС] 

dr.archie80

Морской Волк

Пост 08-Ноя-2014 19:14 (спустя 1 час 31 минута)

[Q] 

Спасибо большое! Лови бочку
[Профиль]  [ЛС] 

Jek@

Легенда

Пост 09-Ноя-2014 10:21 (спустя 15 часов)

[Q] 

Спасибо!!! .
[Профиль]  [ЛС] 

trjy

Штурман

Пост 09-Ноя-2014 11:10 (спустя 48 минут)

[Q] 

Спасибо!!! Автору респект!!!
[Профиль]  [ЛС] 

Танюха10988

Гроза морей

Пост 09-Ноя-2014 15:54 (спустя 4 часа)

[Q] 

Спасибо за раздачу Автору респект!!!
[Профиль]  [ЛС] 

Акрит

Лоцман

Пост 13-Ноя-2014 01:03 (спустя 3 дня)

[Q] 

Фильм отличный. ЛУЧШЕЕ, что я смотрел за последние годы.
[Профиль]  [ЛС] 

bolin

Флибустьер

Пост 13-Ноя-2014 01:24 (спустя 21 минута)

[Q] 

Очень хороший фильм! РЕКОМЕНДУЮ
[Профиль]  [ЛС] 

madvados1

Морской Волк

Пост 15-Ноя-2014 19:36 (спустя 2 дня 18 часов)

[Q] 

спасибо, посмотрю Лови бочку
[Профиль]  [ЛС] 

Пост 11-Дек-2014 08:14 (спустя 25 дней)

Топик был перенесен из форума Новинки (HD|DVD|BD| TV|SAT|PDTV| - Rips) в форум Фильмы 2010 - 2014 г.г.
kugesan
 

maxshpexfex

Морской Волк

Пост 12-Дек-2014 23:23 (спустя 27 дней)

[Q] 

отличный фильм не пожалел Зуб даю...
[Профиль]  [ЛС] 

AirPower

Корсар

Пост 14-Дек-2014 21:13 (спустя 1 день 21 час)

[Q] 

Фильм снят великолепно, ничего лишнего, никаких ми-ми и соплей, чем обычно грешат подобные картины.
Трагичная судьба, как она есть, вполне реальная, вызывает много эмоций.
В финале текли слезы.
Такие фильмы нужно обязательно смотреть.
Автору респект!!!
[Профиль]  [ЛС] 

arkada230573

Корсар

Пост 09-Июл-2018 12:55 (спустя 3 года 6 месяцев)

[Q] 

Спасибо. Отличный фильм.
[Профиль]  [ЛС] 
Показать сообщения:    
Ответить на тему

Текущее время: Сегодня 08:06

Часовой пояс: GMT + 4



Вы не можете начинать темы
Вы не можете отвечать на сообщения
Вы не можете редактировать свои сообщения
Вы не можете удалять свои сообщения
Вы не можете голосовать в опросах
Вы не можете прикреплять файлы к сообщениям
Вы не можете скачивать файлы

Майнать ▼