Три билборда на границе Эббинга, Миссури / Three Billboards Outside Ebbing, Missouri (Мартин МакДона / Martin McDonagh) [2017 г., драма, криминал, комедия, BDRip, 1080p] Dub (Rus) + Dub (Ukr) + Original (Eng)

Ответить на тему
 
Автор
Сообщение

Пост 19-Фев-2018 17:06

[Q] 

moscowpan

Гроза морей

-Три билборда на границе Эббинга, Миссури / Three Billboards Outside Ebbing, Missouri-- Производство: Великобритания, США
Год выпуска: 2017 г.
Жанр: драма, криминал, комедия
Продолжительность: 01:55:20
Мировая премьера: 4 сентября 2017
Российская премьера: 1 февраля 2018
Цифровой релиз: 23 марта 2018
Перевод: Профессиональный (полное дублирование) [Russian 5.1 DTS @ 768 kbps (BD EUR)]
Перевод 2: Профессиональный (полное дублирование) [Ukrainian 5.1 @ 448 kbps (BD EUR)]
Перевод 3: Профессиональный (полное дублирование) [English DTS 5.1 @ 1509 kbps]
Оригинальный аудиопоток: английский
Режиссёр: Мартин МакДона / Martin McDonagh-В ролях: Фрэнсис МакДорманд, Вуди Харрельсон, Сэм Рокуэлл, Джон Хоукс, Питер Динклэйдж, Калеб Лэндри Джонс, Лукас Хеджес, Эбби Корниш, Керри Кондон, Даррел Бритт-Гибсон-Описание: Спустя несколько месяцев после убийства дочери Милдред Хейс преступники так и не найдены. Отчаявшаяся женщина решается на смелый шаг, арендуя на въезде в город три биллборда с посланием к авторитетному главе полиции Уильяму Уиллоуби. Когда в ситуацию оказывается втянут еще и заместитель шерифа, инфантильный маменькин сынок со склонностью к насилию, офицер Диксон, борьба между Милдред и властями города только усугубляется.-
Качество видео: BDRip
Контейнер: MKV
Стандарт разрешения: 1080p
Видео кодек: MPEG4 AVC
Аудио кодек: DTS
Видео: 1920x804, 23.976 FPS
Аудио: 768 kb/s, 6 channels, 48.0 kHz
Аудио #2: 448 kb/s, 6 channels, 48.0 kHz
Аудио #3: 1 509 kb/s, 6 channels, 48.0 kHz
Cубтитры: Russian (Full-length), Ukrainian (Full-length), English (Full-length)
Video
ID : 1
Format : AVC
Format/Info : Advanced Video Codec
Format profile : [email protected]
Format settings : CABAC / 5 Ref Frames
Format settings, CABAC : Yes
Format settings, ReFrames : 5 frames
Codec ID : V_MPEG4/ISO/AVC
Duration : 1 h 55 min
Bit rate : 14.0 Mb/s
Width : 1 920 pixels
Height : 804 pixels
Display aspect ratio : 2.40:1
Frame rate mode : Constant
Frame rate : 23.976 (24000/1001) FPS
Color space : YUV
Chroma subsampling : 4:2:0
Bit depth : 8 bits
Scan type : Progressive
Bits/(Pixel*Frame) : 0.378
Stream size : 11.0 GiB (82%)
Title : 3_BILLBOARDS_OE_MISSOURI_BDRip_1080p-BLUEBIRD
Writing library : x264 core 148 r2665kMod a01e339
Encoding settings : cabac=1 / ref=5 / deblock=1:-3:-3 / analyse=0x3:0x133 / me=umh / subme=11 / psy=1 / fade_compensate=0.00 / psy_rd=0.85:0.00 / mixed_ref=1 / me_range=48 / chroma_me=1 / trellis=2 / 8x8dct=1 / cqm=0 / deadzone=21,11 / fast_pskip=0 / chroma_qp_offset=-2 / threads=24 / lookahead_threads=4 / sliced_threads=0 / nr=0 / decimate=0 / interlaced=0 / bluray_compat=0 / constrained_intra=0 / fgo=0 / bframes=8 / b_pyramid=2 / b_adapt=2 / b_bias=0 / direct=3 / weightb=1 / open_gop=0 / weightp=2 / keyint=240 / keyint_min=24 / scenecut=40 / intra_refresh=0 / rc=2pass / mbtree=0 / bitrate=14000 / ratetol=1.0 / qcomp=0.70 / qpmin=0 / qpmax=69 / qpstep=4 / cplxblur=20.0 / qblur=0.5 / ip_ratio=1.20 / pb_ratio=1.20 / aq=3:0.80
Language : English
Default : Yes
Forced : No
Audio #1
ID : 2
Format : DTS
Format/Info : Digital Theater Systems
Codec ID : A_DTS
Duration : 1 h 55 min
Bit rate mode : Constant
Bit rate : 768 kb/s
Channel(s) : 6 channels
Channel positions : Front: L C R, Side: L R, LFE
Sampling rate : 48.0 kHz
Frame rate : 93.750 FPS (512 SPF)
Bit depth : 24 bits
Compression mode : Lossy
Stream size : 634 MiB (5%)
Title : [DUB] DTS 5.1 @ 768 kbps [BD EUR]
Language : Russian
Default : Yes
Forced : No
Audio #2
ID : 3
Format : AC-3
Format/Info : Audio Coding 3
Codec ID : A_AC3
Duration : 1 h 55 min
Bit rate mode : Constant
Bit rate : 448 kb/s
Channel(s) : 6 channels
Channel positions : Front: L C R, Side: L R, LFE
Sampling rate : 48.0 kHz
Frame rate : 31.250 FPS (1536 SPF)
Bit depth : 16 bits
Compression mode : Lossy
Stream size : 370 MiB (3%)
Title : [DUB] DD 5.1 @ 448 kbps [BD EUR]
Language : Ukrainian
Service kind : Complete Main
Default : No
Forced : No
Audio #3
ID : 4
Format : DTS
Format/Info : Digital Theater Systems
Codec ID : A_DTS
Duration : 1 h 55 min
Bit rate mode : Constant
Bit rate : 1 509 kb/s
Channel(s) : 6 channels
Channel positions : Front: L C R, Side: L R, LFE
Sampling rate : 48.0 kHz
Frame rate : 93.750 FPS (512 SPF)
Bit depth : 24 bits
Compression mode : Lossy
Stream size : 1.22 GiB (9%)
Title : [ORIGINAL] DTS 5.1 @ 1509 kbps
Language : English
Default : No
Forced : No
Text #1
ID : 5
Format : PGS
Muxing mode : zlib
Codec ID : S_HDMV/PGS
Codec ID/Info : Picture based subtitle format used on BDs/HD-DVDs
Title : Full-length
Language : Russian
Default : No
Forced : No
Text #2
ID : 6
Format : PGS
Muxing mode : zlib
Codec ID : S_HDMV/PGS
Codec ID/Info : Picture based subtitle format used on BDs/HD-DVDs
Title : Full-length
Language : Ukrainian
Default : No
Forced : No
Text #3
ID : 7
Format : PGS
Muxing mode : zlib
Codec ID : S_HDMV/PGS
Codec ID/Info : Picture based subtitle format used on BDs/HD-DVDs
Title : Full-length
Language : English
Default : No
Forced : No
Menu
00:00:00.000 : en:00:00:00.000
00:05:42.092 : en:00:05:42.092
00:08:56.911 : en:00:08:56.911
00:12:50.019 : en:00:12:50.019
00:19:46.644 : en:00:19:46.644
00:23:43.547 : en:00:23:43.547
00:27:36.363 : en:00:27:36.363
00:31:35.769 : en:00:31:35.769
00:35:08.690 : en:00:35:08.690
00:40:54.827 : en:00:40:54.827
00:44:35.715 : en:00:44:35.715
00:49:18.789 : en:00:49:18.789
00:55:35.916 : en:00:55:35.916
00:59:56.134 : en:00:59:56.134
01:04:09.888 : en:01:04:09.888
01:10:55.293 : en:01:10:55.293
01:15:36.699 : en:01:15:36.699
01:23:08.734 : en:01:23:08.734
01:27:24.489 : en:01:27:24.489
01:35:49.702 : en:01:35:49.702
01:40:32.693 : en:01:40:32.693
01:44:02.194 : en:01:44:02.194
01:46:56.910 : en:01:46:56.910
01:49:55.005 : en:01:49:55.005
Download / Скачать

Хотите скачать бесплатно? Зарегистрируйтесь на сайте (ссылка на регистрацию). Pirat.ca - самый быстрый торрент трекер в рунете!

Как скачивать  ·   Что такое торрент  ·   Рейтинг и ограничения

MikeB

Гроза морей

Пост 20-Фев-2018 02:22 (спустя 9 часов)

[Q] 

кино неплохое , только финала нету ...
[Профиль]  [ЛС] 

moscowpan ®

Гроза морей

4445

Пост 20-Фев-2018 09:24 (спустя 7 часов)

[Q] 

ну финал конечно немного оборванный, но, как говориться, - сиди и додумывай

_________________
[Профиль]  [ЛС] 

feldorius

Корсар

Пост 22-Фев-2018 00:39 (спустя 1 день 15 часов)

[Q] 

Не люблю фильмы без финала.
Благодарю, пройду мимо.
[Профиль]  [ЛС] 

Sharifulla

Корсар

Пост 24-Фев-2018 13:23 (спустя 2 дня 12 часов)

[Q] 

Хороший фильм, а по финалу, все на просмотр картины второй Лови бочку
[Профиль]  [ЛС] 

Hippopotam

Флибустьер

Пост 01-Мар-2018 12:51 (спустя 4 дня)

[Q] 

Превосходный фильм Супер! Лови бочку
[Профиль]  [ЛС] 

moscowpan ®

Гроза морей

4445

Пост 01-Мар-2018 13:11 (спустя 20 минут)

[Q] 

Спасибо за Спасибо

_________________
[Профиль]  [ЛС] 

grosboy

Гроза морей

Пост 04-Мар-2018 09:32 (спустя 2 дня 20 часов)

[Q] 

На любителя фильм. Отсутствует концовка внятная...

_________________
Щастье есть - его не может не быть...
[Профиль]  [ЛС] 

Glife

Легенда

Пост 09-Мар-2018 11:13 (спустя 5 дней)

[Q] 

Концовка?
Или сами придумываем, или ждем "4 билборда".
PS Оскар сорвался..

_________________
Дорогу осилит идущий.
[Профиль]  [ЛС] 

Mustafa Sazont

Корсар

Пост 13-Мар-2018 14:40 (спустя 4 дня)

[Q] 

Класс! Мама молодчага. Мента (Вуди Харрельсон) немного жалко, положительный персонаж.
[Профиль]  [ЛС] 

Ishtori

Флибустьер

Пост 10-Июл-2018 20:42 (спустя 3 месяца 28 дней)

[Q] 

спасибо за раздачу! Супер!
[Профиль]  [ЛС] 

exelero07

Гроза морей

Пост 21-Июл-2018 00:39 (спустя 10 дней)

[Q] 

сюжет и актерские роли хороши
[Профиль]  [ЛС] 
Показать сообщения:    
Ответить на тему

Текущее время: Сегодня 10:19

Часовой пояс: GMT + 4



Вы не можете начинать темы
Вы не можете отвечать на сообщения
Вы не можете редактировать свои сообщения
Вы не можете удалять свои сообщения
Вы не можете голосовать в опросах
Вы не можете прикреплять файлы к сообщениям
Вы не можете скачивать файлы

Майнать ▼