Рэмпейдж / Rampage (Брэд Пейтон / Brad Peyton) [2018 г., Фантастика, боевик, приключения, WEB-DL, 1080p] Dub Sub (Rus)

Ответить на тему
 
Автор
Сообщение

Пост 28-Июн-2018 14:34

[Q] 

AlexDjas

Гроза морей

--Рэмпейдж / Rampage--«Больше, чем скала»-- Производство: США
Год выпуска: 2018 г.
Жанр: Фантастика, боевик, приключения
Продолжительность: 01:47:14
Мировая премьера: 11 апреля 2018
Российская премьера: 12 апреля 2018, «Каро-Премьер»
Перевод: Профессиональный (полное дублирование) [iTunes]
Режиссёр: Брэд Пейтон / Brad Peyton--В ролях: Дуэйн Джонсон, Джеффри Дин Морган, Малин Акерман, Джо Манганьелло, Марли Шелтон, Уилл Юн Ли, Наоми Харрис, Джек Куэйд, Джейк Лэси, Бриэнн Хилл--Описание: Приматолог Дэвис Окойи предпочитает держаться подальше от людей и дружит с Джорджем, удивительно умным альфа-самцом - гориллой, которого он воспитывал с самого рождения. Но вышедший из-под контроля генетический эксперимент превращает послушную обезьяну в яростного монстра. Более того, вскоре обнаруживается, что существуют и другие модифицированные хищники. Пока свежесозданные чудовища превращают в руины Северную Америку, стирая с лица Земли все, что попадается у них на пути, Окойи вместе с опальным генным инженером пытается изобрести антидот, прорываясь по бесконечному полю боя не только, чтобы предотвратить глобальную катастрофу, но и спасти бесстрашное существо, которое когда-то было его другом.-- Качество видео: WEB-DL
Контейнер: MKV
Стандарт разрешения: 1080p
Видео кодек: MPEG4 AVC
Аудио кодек: AC3
Видео: H.264/AVC, 1920x800, ~4525 Kbps, 23,976 fps
Аудио: AC-3, 48 kHz, 2 ch, ~384 Kbps
Cубтитры: русские (forced, full)
Общее
Уникальный идентификатор : 247173467419774031666220273627757581332 (0xB9F3E0D41608832C268666B335689414)
Полное имя : D:\Фильмы\Rampage_2018_WEB-DL_1080p[pirat.ca].mkv
Формат : Matroska
Версия формата : Version 4 / Version 2
Размер файла : 3,68 Гбайт
Продолжительность : 1 ч. 47 м.
Общий поток : 4910 Кбит/сек
Название фильма : Rampage 2018
Дата кодирования : UTC 2018-06-28 10:10:40
Программа кодирования : mkvmerge v24.0.0 ('Beyond The Pale') 64-bit
Библиотека кодирования : libebml v1.3.6 + libmatroska v1.4.9
Видео
Идентификатор : 1
Формат : AVC
Формат/Информация : Advanced Video Codec
Профиль формата : [email protected]
Настройки формата : CABAC / 5 Ref Frames
Параметр CABAC формата : Да
Параметр RefFrames формата : 5 кадров
Идентификатор кодека : V_MPEG4/ISO/AVC
Продолжительность : 1 ч. 47 м.
Битрейт : 4525 Кбит/сек
Ширина : 1920 пикселей
Высота : 800 пикселей
Соотношение сторон : 2,40:1
Режим частоты кадров : Постоянный
Частота кадров : 23,976 (24000/1001) кадра/сек
Цветовое пространство : YUV
Субдискретизация насыщенности : 4:2:0
Битовая глубина : 8 бит
Тип развёртки : Прогрессивная
Бит/(Пиксели*Кадры) : 0.123
Размер потока : 3,39 Гбайт (92%)
Заголовок : Rampage 2018
Язык : English
Default : Да
Forced : Нет
Цветовой диапазон : Limited
Основные цвета : BT.709
Характеристики трансфера : BT.709
Коэффициенты матрицы : BT.709
Аудио
Идентификатор : 2
Формат : AC-3
Формат/Информация : Audio Coding 3
Идентификатор кодека : A_AC3
Продолжительность : 1 ч. 47 м.
Вид битрейта : Постоянный
Битрейт : 384 Кбит/сек
Каналы : 2 канала
Расположение каналов : Front: L R
Частота : 48,0 КГц
Частота кадров : 31,250 кадров/сек (1536 SPF)
Битовая глубина : 16 бит
Метод сжатия : С потерями
Задержка видео : -42 мс.
Размер потока : 295 Мбайт (8%)
Заголовок : iTunes
Язык : Russian
ServiceKind/String : Complete Main
Default : Да
Forced : Нет
Текст #1
Идентификатор : 3
Формат : UTF-8
Идентификатор кодека : S_TEXT/UTF8
Идентификатор кодека/Информация : UTF-8 Plain Text
Продолжительность : 1 ч. 32 м.
Битрейт : 2 бит/сек
ElementCount : 31
Размер потока : 1,75 Кбайт (0%)
Заголовок : Forced
Язык : Russian
Default : Да
Forced : Нет
Текст #2
Идентификатор : 4
Формат : UTF-8
Идентификатор кодека : S_TEXT/UTF8
Идентификатор кодека/Информация : UTF-8 Plain Text
Продолжительность : 1 ч. 46 м.
Битрейт : 83 бит/сек
ElementCount : 1292
Размер потока : 65,0 Кбайт (0%)
Заголовок : Full
Язык : Russian
Default : Нет
Forced : Нет
Меню
00:00:00.000 : en:1
00:12:58.000 : en:2
00:19:56.000 : en:3
00:29:53.000 : en:4
00:40:35.000 : en:5
00:49:10.000 : en:6
01:02:38.000 : en:7
01:10:37.000 : en:8
01:20:10.000 : en:9
01:29:23.000 : en:10
01:39:42.000 : en:11
Download / Скачать

Хотите скачать бесплатно? Зарегистрируйтесь на сайте (ссылка на регистрацию). Pirat.ca - самый быстрый торрент трекер в рунете!

Как скачивать  ·   Что такое торрент  ·   Рейтинг и ограничения

Кристина119

Гроза морей

Пост 30-Июн-2018 13:53 (спустя 1 день 23 часа)

[Q] 

Новый кинконг? Лови бочку
[Профиль]  [ЛС] 

diabolic

Шкипер

Пост 30-Июн-2018 18:26 (спустя 4 часа)

[Q] 

Автору респект!!! фильм отличный стоит посмотреть Пиратка рулит!
[Профиль]  [ЛС] 

Drooide

Лоцман

Пост 02-Июл-2018 00:04 (спустя 1 день 5 часов)

[Q] 

Автору респект!!! Одобряю. Фильм хороший. Пиратка рулез!!!
[Профиль]  [ЛС] 

the_lame

Флибустьер

Пост 02-Июл-2018 17:29 (спустя 17 часов)

[Q] 

Очень даже неплохо, весело и задорно!
[Профиль]  [ЛС] 

Массарадж

Морской Волк

Пост 03-Июл-2018 18:51 (спустя 1 день 1 час)

[Q] 

Спасибо за раздачу! Глянем

_________________
[Профиль]  [ЛС] 

xgoliy

Морской Волк

Пост 04-Июл-2018 08:13 (спустя 13 часов)

[Q] 

весело Автору респект!!! Лови бочку
[Профиль]  [ЛС] 

koljan-2008

Флибустьер

10

Пост 06-Июл-2018 14:18 (спустя 2 дня 6 часов)

[Q] 

Раздающему - спасибо! Глянем, что за фильмец. Описание вроде неплохое.

_________________
Нужно лишь верить в мечту. Искренне верить! И тогда всё получится!
[Профиль]  [ЛС] 

Sector_X

311

Пост 11-Июл-2018 01:35 (спустя 4 дня)

[Q] 

Вы лучшие! Мне понравилось

_________________

[Профиль]  [ЛС] 
Показать сообщения:    
Ответить на тему

Текущее время: Сегодня 10:19

Часовой пояс: GMT + 4



Вы не можете начинать темы
Вы не можете отвечать на сообщения
Вы не можете редактировать свои сообщения
Вы не можете удалять свои сообщения
Вы не можете голосовать в опросах
Вы не можете прикреплять файлы к сообщениям
Вы не можете скачивать файлы

Майнать ▼