Павел, апостол Христа / Paul, Apostle of Christ (Эндрю Хайатт / Andrew Hyatt) [2018, США, драма, история, BDRip] MVO[Лицензия]

Ответить на тему
 
Автор
Сообщение

Пост 29-Июн-2018 20:33

[Q] 

Су-34

Гроза морей

Павел, апостол Христа / Paul, Apostle of Christ «Их вера оспаривала империю»- -
Год выпуска: 2018
Страна: США
Жанр: драма, история
Продолжительность: 01:47:46
Перевод: Профессиональный многоголосый [Лицензия]- Режиссер: Эндрю Хайатт / Andrew Hyatt- В ролях:
-Джеймс Кэвизел (Luke), Джеймс Фолкнер (Paul), Оливье Мартинес (Mauritius), Джоэнн Уэлли (Priscilla), Джон Линч (Aquila), Гиоргос Карамихос (Saul of Tarsus), Антония Кэмпбелл-Хьюджес (Irenica), Алессандро Спердути (Cassius), Александра Вино (Octavia), Мануэль Коши (Ananias), Ной Хантли (Publius), Кеннет Спитери (Eubulus)- Описание:
История жизни и смерти апостола Павла, который прошёл путь от беспощадного гонителя христиан до одного из основателей христианской церкви. Его последнее миссионерское путешествие заканчивается в тюрьме, куда он был заточён по приказу римского императора Нерона. Пока плененный Павел ждёт казни и размышляет о своей посмертной участи, его последователь Лука пишет новое Евангелие.-Семпл: http://sendfile.su/1428021
http://sendfile.su/1428021- Качество: BDRip
Формат: AVI
Видео кодек: XviD
Аудио кодек: AC3
Видео: XviD, 720x304 (2.35:1), 1482 kbps, 23,976 fps, 0,283 bpp
Аудио: AC3 / 5.1 / 48 kHz / 448 kbps /-
General
Complete name : Z:\Torrents\Павел, апостол Христа_2018_BDRip.avi
Format : AVI
Format/Info : Audio Video Interleave
File size : 1.46 GiB
Duration : 1 h 47 min
Overall bit rate : 1 940 kb/s
Writing application : VirtualDubMod 1.5.10.2 (build 2540/release)
Writing library : VirtualDubMod build 2540/release
Video
ID : 0
Format : MPEG-4 Visual
Format profile : Advanced Simple@L5
Format settings, BVOP : 1
Format settings, QPel : No
Format settings, GMC : No warppoints
Format settings, Matrix : Custom
Codec ID : XVID
Codec ID/Hint : XviD
Duration : 1 h 47 min
Bit rate : 1 483 kb/s
Width : 720 pixels
Height : 304 pixels
Display aspect ratio : 2.35:1
Frame rate : 23.976 (24000/1001) FPS
Color space : YUV
Chroma subsampling : 4:2:0
Bit depth : 8 bits
Scan type : Progressive
Compression mode : Lossy
Bits/(Pixel*Frame) : 0.283
Stream size : 1.12 GiB (76%)
Writing library : XviD 73
Audio
ID : 1
Format : AC-3
Format/Info : Audio Coding 3
Mode extension : CM (complete main)
Format settings, Endianness : Big
Codec ID : 2000
Duration : 1 h 47 min
Bit rate mode : Constant
Bit rate : 448 kb/s
Channel(s) : 6 channels
Channel positions : Front: L C R, Side: L R, LFE
Sampling rate : 48.0 kHz
Frame rate : 31.250 FPS (1536 spf)
Compression mode : Lossy
Stream size : 345 MiB (23%)
Alignment : Split accross interleaves
Interleave, duration : 42 ms (1.00 video frame)
Interleave, preload duration : 500 ms
Download / Скачать

Хотите скачать бесплатно? Зарегистрируйтесь на сайте (ссылка на регистрацию). Pirat.ca - самый быстрый торрент трекер в рунете!

Как скачивать  ·   Что такое торрент  ·   Рейтинг и ограничения



Последний раз редактировалось: Су-34 (2018-07-02 22:15), всего редактировалось 1 раз

Андря

8641

Пост 30-Июн-2018 09:47 (спустя 13 часов)

[Q] 

исправьте скриншоты.

_________________
Като Тешекика
[Профиль]  [ЛС] 

Су-34 ®

Гроза морей

15050

Пост 02-Июл-2018 20:10 (спустя 2 дня 10 часов)

[Q] 

827810исправьте скриншоты.
В каком смысле?? что надо исправлять ??
[Профиль]  [ЛС] 

Андря

8641

Пост 02-Июл-2018 21:35 (спустя 1 час 25 минут)

[Q] 

828443что надо исправлять ??
скриншоты исправлять

_________________
Като Тешекика
[Профиль]  [ЛС] 

Су-34 ®

Гроза морей

15050

Пост 02-Июл-2018 21:45 (спустя 10 минут)

[Q] 

а чего их исправлять?? что с ними не так?? конкретно нельзя написать или ты сам не знаешь!?
[Профиль]  [ЛС] 

Андря

8641

Пост 02-Июл-2018 22:03 (спустя 17 минут)

[Q] 

второй и третий скриншоты
посмотреть не умеешь или слеп?

_________________
Като Тешекика
[Профиль]  [ЛС] 

Су-34 ®

Гроза морей

15050

Пост 02-Июл-2018 22:16 (спустя 13 минут)

[Q] 

Ты не русский что ли
828450посмотреть не умеешь
Так и скажи я чурка свои мысли по- русски выражаю плохо, но скрины поменяй моя так хочет...
Такие чебурека устроят??
!Андря писал(а):

За хамство
[Профиль]  [ЛС] 

Apostle358

Флибустьер

168

Пост 05-Июл-2018 06:22 (спустя 2 дня 8 часов)

[Q] 

828450второй и третий скриншоты
посмотреть не умеешь или слеп?
Субъекту нужно срочно на курсы культурного общения среди цивилизованного общества.
[Профиль]  [ЛС] 

AirPower

Корсар

Пост 06-Июл-2018 00:35 (спустя 18 часов)

[Q] 

Андря, со скринами все ОК
828450второй и третий скриншоты
посмотреть не умеешь или слеп?
А я тоже смотрел и не высмотрел косяков, что еще посоветуешь?
[Профиль]  [ЛС] 

ZektraPlay

Шкипер

Пост 11-Июл-2018 23:46 (спустя 5 дней)

[Q] 

Фильм огонь! Всем смотреть!
[Профиль]  [ЛС] 

exelero07

Флибустьер

Пост Вчера 23:44 (спустя 8 дней)

[Q] 

очень интересная и занимательная история
[Профиль]  [ЛС] 
Показать сообщения:    
Ответить на тему

Текущее время: Сегодня 15:58

Часовой пояс: GMT + 4



Вы не можете начинать темы
Вы не можете отвечать на сообщения
Вы не можете редактировать свои сообщения
Вы не можете удалять свои сообщения
Вы не можете голосовать в опросах
Вы не можете прикреплять файлы к сообщениям
Вы не можете скачивать файлы

Майнать ▼