Дэдпул 2 / Deadpool 2 (Дэвид Литч/David Leitch) [2018 г., Фантастика, Боевик, Комедия, Приключения, TeleSynch] Dub

Ответить на тему
 
Автор
Сообщение

Пост 20-Май-2018 14:21

[Q] 

AlexDjas

Флибустьер

--Дэдпул 2 / Deadpool 2--«Беда не приходит одна»-- Производство: США
Год выпуска: 2018 г.
Жанр: Фантастика, Боевик, Комедия, Приключения
Продолжительность: 01:51:03
Мировая премьера: 10 мая 2018
Российская премьера: 17 мая 2018, «Двадцатый Век Фокс СНГ»
Перевод: Профессиональный (полное дублирование)
Режиссёр: Дэвид Литч/David Leitch--В ролях: Джош Бролин, Райан Рейнольдс, Морена Баккарин, Зази Битц, Брианна Хилдебранд, Брэд Питт, Билл Скарсгард, ТиДжей Миллер, Терри Крюс, Роб Делани--Описание: Единственный и неповторимый болтливый наемник — вернулся! Ещё более масштабный, ещё более разрушительный и даже ещё более голозадый, чем прежде! Когда в его жизнь врывается суперсолдат с убийственной миссией, Дэдпул вынужден задуматься о дружбе, семье и о том, что на самом деле значит быть героем, попутно надирая 50 оттенков задниц. Потому что иногда чтобы делать хорошие вещи, нужно использовать грязные приёмчики.-- Качество видео: TeleSynch
Контейнер: MKV
Видео кодек: MPEG4 AVC
Аудио кодек: AC3
Видео: H.264/AVC, 1280х528, ~3702 kbps, 23,976 fps
Аудио: 48 kHz, AC3, 2 ch, 384 kbps
Cубтитры: отсутствуют
Общее
Уникальный идентификатор : 194294177767803557255904766251570522987 (0x922BB28F3FD29906B6C60F032F5B6B6B)
Полное имя : G:\Торрент\DedPull_2_2018_TS_72Op[pirat.ca].mkv
Формат : Matroska
Версия формата : Version 2
Размер файла : 3,17 Гбайт
Продолжительность : 1 ч. 51 м.
Режим общего битрейта : Переменный
Общий поток : 4088 Кбит/сек
Дата кодирования : UTC 2018-05-17 12:38:35
Программа кодирования : mkvmerge v8.3.0 ('Over the Horizon') 64bit
Библиотека кодирования : libebml v1.3.1 + libmatroska v1.4.2
Видео
Идентификатор : 1
Формат : AVC
Формат/Информация : Advanced Video Codec
Профиль формата : High@L4.1
Настройки формата : CABAC / 4 Ref Frames
Параметр CABAC формата : Да
Параметр RefFrames формата : 4 кадра
Идентификатор кодека : V_MPEG4/ISO/AVC
Продолжительность : 1 ч. 51 м.
Вид битрейта : Переменный
Битрейт : 3702 Кбит/сек
Максимальный битрейт : 4000 Кбит/сек
Ширина : 1280 пикселей
Высота : 528 пикселей
Соотношение сторон : 2,40:1
Режим частоты кадров : Постоянный
Частота кадров : 23,976 (24000/1001) кадра/сек
Стандарт вещания : Component
Цветовое пространство : YUV
Субдискретизация насыщенности : 4:2:0
Битовая глубина : 8 бит
Тип развёртки : Прогрессивная
Бит/(Пиксели*Кадры) : 0.228
Размер потока : 2,87 Гбайт (91%)
Default : Да
Forced : Нет
Цветовой диапазон : Limited
Основные цвета : BT.709
Характеристики трансфера : BT.709
Коэффициенты матрицы : BT.709
Аудио
Идентификатор : 2
Формат : AC-3
Формат/Информация : Audio Coding 3
Идентификатор кодека : A_AC3
Продолжительность : 1 ч. 51 м.
Вид битрейта : Постоянный
Битрейт : 384 Кбит/сек
Каналы : 2 канала
Расположение каналов : Front: L R
Частота : 48,0 КГц
Частота кадров : 31,250 кадров/сек (1536 SPF)
Битовая глубина : 16 бит
Метод сжатия : С потерями
Размер потока : 305 Мбайт (9%)
ServiceKind/String : Complete Main
Default : Да
Forced : Нет
--Внимание!!! Присутствует реклама!!--
Download / Скачать

Хотите скачать бесплатно? Зарегистрируйтесь на сайте (ссылка на регистрацию). Pirat.ca - самый быстрый торрент трекер в рунете!

Как скачивать  ·   Что такое торрент  ·   Рейтинг и ограничения

studentUA

Корсар

56

Пост 20-Май-2018 22:38 (спустя 8 часов)

[Q] 

фильм годный, но судя по сэмплу лучше подождать
[Профиль]  [ЛС] 

petrs_2000

Лоцман

Пост 22-Май-2018 01:30 (спустя 1 день 2 часа)

[Q] 

В запись с экрана кинотеатра со смехом и звуками поглощения попкорна они ещё и рекламу вкрячили. Буду ждать качество!
[Профиль]  [ЛС] 

savicus

Корсар

Пост 22-Май-2018 10:00 (спустя 8 часов)

[Q] 

Да уж, качество не ахти, нужно подождать...
[Профиль]  [ЛС] 

Alhimik

Шкипер

17

Пост 23-Май-2018 00:38 (спустя 14 часов)

[Q] 

826185В запись с экрана кинотеатра со смехом и звуками поглощения попкорна они ещё и рекламу вкрячили. Буду ждать качество!
А я вот думаю, при таком качестве откуда объем то 3.17 гб? Раньше рипы в таком качестве по 700 мб весили, с тех времен качество не изменилось, а объем подрос. Это как бензин у нас, только в рост идет.
[Профиль]  [ЛС] 

AlexDjas ®

Флибустьер

5461

Пост 23-Май-2018 12:16 (спустя 11 часов)

[Q] 

А я вот думаю, при таком качестве откуда объем то 3.17 гб? Раньше рипы в таком качестве по 700 мб весили, с тех времен качество не изменилось, а объем подрос. Это как бензин у нас, только в рост идет.
Размер картинки и битрейт 3700 - вот и все сказано...

_________________
- Один терапевт - это 1024 гигапевта, или 1048576 мегапевтов!
[Профиль]  [ЛС] 

adm-lib

Штурман

Пост 25-Май-2018 12:33 (спустя 2 дня)

[Q] 

Надо запретить выкладывать фильмы с рекламой!!!
Баян однако!
[Профиль]  [ЛС] 

argo

Штурман

Пост 25-Май-2018 16:37 (спустя 4 часа)

[Q] 

Интересно, а почему первым актером идет Джош Бролин, а не Райан Рейнольдс
[Профиль]  [ЛС] 

Billy Bones

Морской Волк

Пост 25-Май-2018 21:04 (спустя 4 часа)

[Q] 

смотрел в кинотеатре- вроде ничего
[Профиль]  [ЛС] 

Gari4

Флибустьер

Пост 07-Июн-2018 17:51 (спустя 12 дней)

[Q] 

Ну да, не плохо. Только у меня есть вопросы, которые и сам Дэдпул задает:
1. Почему не прикончить мать ребенка? Ок, почему не придти еще до того, как его посадят в тюрьму?
2. Почему нельзя было дать таблетку времени Дедпулу, чтобы он спас любимую и этого мелкого у...бка тоже?
3. Зачем вообще было убивать женщину Пула? Ну ок ок сценарий...
Фильм не плохой, но вот вопросики есть..

_________________
РЕБЯТ!! Подпишитесь на канал! Вам все равно, а мне приятно))
https://www.youtube.com/channel/UCHdnAvKKhkxeJvg3DQ...ew_as=subscriber
[Профиль]  [ЛС] 

head280

Морской Волк

Пост 01-Июл-2018 19:53 (спустя 24 дня)

[Q] 

Спасибо. Подожду качества.
[Профиль]  [ЛС] 

a s d

Морской Волк

1

Пост 12-Июл-2018 23:53 (спустя 11 дней)

[Q] 

Спасибо!!! !!!!! Автору респект!!!
[Профиль]  [ЛС] 

alexx2201

34

Пост 15-Июл-2018 23:28 (спустя 2 дня 23 часа)

[Q] 

зачоооот!!!автору катим катим катим... Лови бочку

_________________
Одним ветром дышим, Пираты!
[Профиль]  [ЛС] 

exelero07

Гроза морей

Пост 20-Июл-2018 22:05 (спустя 4 дня)

[Q] 

ну этот получше чем детские мстители и пауки пантерами
[Профиль]  [ЛС] 
Показать сообщения:    
Ответить на тему

Текущее время: Сегодня 03:23

Часовой пояс: GMT + 4



Вы не можете начинать темы
Вы не можете отвечать на сообщения
Вы не можете редактировать свои сообщения
Вы не можете удалять свои сообщения
Вы не можете голосовать в опросах
Вы не можете прикреплять файлы к сообщениям
Вы не можете скачивать файлы

Майнать ▼