Лексс / Lexx / Сезон: 4 / Серии: 1-24 (Lex Gigeroff / Лекс Гигерофф) [2001 г., Фантастика, DVDRip, 480p] MVO (TV-6) + Original (Eng)

Ответить на тему
 
Автор
Сообщение

Пост 13-Июл-2018 23:59

[Q] 

Дядя Вова

Гроза морей

-Лексс / Lexx-- Производство: Канада, Германия, Великобритания, США
Жанр: Фантастика
Год выпуска: 2001 г.
Продолжительность: ~18:00:00
Мировая премьера: 2001
Российская премьера: 2001
Перевод: Профессиональный (многоголосый, закадровый) [TV-6]
Оригинальный аудиопоток: английский
Режиссёр: Lex Gigeroff / Лекс Гигерофф-В ролях: Брайан Дауни / Brian Downey, Эва Хаберманн / Eva Habermann, Майкл МакМэнус / Michael McManus, Джеффри Хиршфилд / Jeffrey Hirschfield (голос 790), Том Гэллэнт / Tom Gallant (голос Лекс) и другие ...-Описание: Телевизионный фантастический сериал, сказание о группе межгалактических беженцев, укравших огромный живой корабль “Лекс”, самое мощное оружие разрушения в двух Вселенных, чтобы спастись от гнева Божественной Тени, правителя Вселенной Света. Они укрываются от него во Вселенной Тьмы, где правят жестокость, коварство и хаос. В поисках нового дома беженцы попадают в хитроумно расставленные ловушки и переживают многочисленные приключения, вообразить которые сознание человека, не игравшего в компьютерные игры, просто не способно.-Качество видео: DVDRip
Контейнер: AVI
Видео кодек: DivX
Аудио кодек: MP3
Видео: 544 x 416 pixels ; 806 Kbps ; 23.976 fps, 0.149 Bits/Pixel
Аудио: 128 Kbps ; 2 channels ; 48.0 KHz ; Russian
Аудио #2: 128 Kbps ; 2 channels ; 48.0 KHz ; English
Cубтитры: отсутствуют
Бонус, к сожалению, без перевода.
General
Complete name : G:\Загрузки\сид аид\Lexx s04\Lexx 4.04 Stan Down.rus-eng.avi
Format : AVI
Format/Info : Audio Video Interleave
File size : 350 MiB
Duration : 44mn 55s
Overall bit rate : 1 090 Kbps
Writing application : VirtualDubMod 1.5.4.1 (build 2178/release)
Writing library : VirtualDubMod build 2178/release
Video
ID : 0
Format : MPEG-4 Visual
Format settings, BVOP : Yes
Format settings, QPel : No
Format settings, GMC : No warppoints
Format settings, Matrix : Default (H.263)
Muxing mode : Packed bitstream
Codec ID : DX50
Codec ID/Hint : DivX 5
Duration : 44mn 55s
Bit rate : 806 Kbps
Width : 544 pixels
Height : 416 pixels
Display aspect ratio : 4:3
Frame rate : 23.976 fps
Color space : YUV
Chroma subsampling : 4:2:0
Bit depth : 8 bits
Scan type : Progressive
Compression mode : Lossy
Bits/(Pixel*Frame) : 0.149
Stream size : 259 MiB (74%)
Writing library : DivX 5.2.1 (DrDivX 106) (UTC 2004-09-08)
Audio #1
ID : 1
Format : MPEG Audio
Format version : Version 1
Format profile : Layer 3
Mode : Joint stereo
Mode extension : MS Stereo
Codec ID : 55
Codec ID/Hint : MP3
Duration : 44mn 55s
Bit rate mode : Variable
Bit rate : 128 Kbps
Channel(s) : 2 channels
Sampling rate : 48.0 KHz
Compression mode : Lossy
Stream size : 42.4 MiB (12%)
Alignment : Aligned on interleaves
Interleave, duration : 24 ms (0.58 video frame)
Interleave, preload duration : 470 ms
Writing library : LAME3.96r
Encoding settings : -m j -V 4 -q 2 -lowpass 17.5 --abr 128
Language : Russian
Audio #2
ID : 2
Format : MPEG Audio
Format version : Version 1
Format profile : Layer 3
Mode : Joint stereo
Mode extension : MS Stereo
Codec ID : 55
Codec ID/Hint : MP3
Duration : 44mn 55s
Bit rate mode : Variable
Bit rate : 128 Kbps
Channel(s) : 2 channels
Sampling rate : 48.0 KHz
Compression mode : Lossy
Stream size : 42.3 MiB (12%)
Alignment : Aligned on interleaves
Interleave, duration : 24 ms (0.58 video frame)
Interleave, preload duration : 483 ms
Writing library : LAME3.96r
Encoding settings : -m j -V 4 -q 2 -lowpass 17.5 --abr 128
Language : English
Источник/Качество: DVDRip
Формат: AVI
Видео кодек: DivX
Аудио кодек: AC-3
Видео: DivX 5 720 pixels x 544 pixels; 23.976 fps 1 743 Kbps
Аудио: Dolby AC3 48000Hz stereo 224kbps
Релиз от Паппика
Download / Скачать

Хотите скачать бесплатно? Зарегистрируйтесь на сайте (ссылка на регистрацию). Pirat.ca - самый быстрый торрент трекер в рунете!

Как скачивать  ·   Что такое торрент  ·   Рейтинг и ограничения

Показать сообщения:    
Ответить на тему

Текущее время: Сегодня 15:54

Часовой пояс: GMT + 4



Вы не можете начинать темы
Вы не можете отвечать на сообщения
Вы не можете редактировать свои сообщения
Вы не можете удалять свои сообщения
Вы не можете голосовать в опросах
Вы не можете прикреплять файлы к сообщениям
Вы не можете скачивать файлы

Майнать ▼