Красотка на всю голову / I Feel Pretty (Эбби Кон / Abby Kohn, Марк Силверштейн / Marc Silverstein) [2018, комедия, BDRip] MVO [HDRezka Studio]

Ответить на тему
 
Автор
Сообщение

Пост 14-Июл-2018 12:51

[Q] 

Су-34

Гроза морей

Красотка на всю голову / I Feel Pretty
«Измените все, не меняя ничего»- -
Год выпуска: 2018
Страна: Китай, США
Жанр: комедия
Продолжительность: 01:50:58
Перевод: Профессиональный [многоголосый] [HDRezka Studio]
Субтитры: нет- Режиссер: Эбби Кон / Abby Kohn, Марк Силверштейн / Marc Silverstein- В ролях:
-Эми Шумер (Renee Bennett), Мишель Уильямс (Avery LeClaire), Том Хоппер (Grant LeClair), Рори Сковел (Ethan), Адриан Мартинес (Mason), Эмили Ратаковски (Mallory), Эйди Брайант (Vivian), Бизи Филиппс (Jane), Лорен Хаттон (Lily LeClaire), Сашир Замата (Tasha), Angela Davis (Luna), Кэролайн Дэй (Jenn)- Описание:
Ее жизнь состояла из вечных попыток сесть на диету или заняться фитнесом. «Попытка засчитана», - подумала Вселенная и скинула бедняжку с велотренажера. Девушка ударяется головой и обретает аномальную уверенность в том, что теперь она просто неотразима. Одна проблема - в глазах других людей она ни капли не изменилась. В общем, красотка на всю голову.-https://www.kinopoisk.ru/film/krasotka-na-vsyu-golovu-2018-1074222/
https://www.imdb.com/title/tt6791096/
http://sendfile.su/1430506- Качество: BDRip
Формат: AVI
Видео кодек: XviD
Аудио кодек: AC3
Видео: XviD, 720x304 (2.35:1), 1426 kbps, 23,976 fps, 0,272 bpp
Аудио: AC3 / 2.0 / 48 kHz / 384 kbps /-
General
Complete name : Z:\Torrents\I.Feel.Pretty.2018.BDRip.1.41Gb.MVO.MegaPeer.avi
Format : AVI
Format/Info : Audio Video Interleave
File size : 1.41 GiB
Duration : 1 h 50 min
Overall bit rate : 1 820 kb/s
Writing application : VirtualDubMod 1.5.10.2 (build 2540/release)
Writing library : VirtualDubMod build 2540/release
Video
ID : 0
Format : MPEG-4 Visual
Format profile : Advanced [email protected]
Format settings, BVOP : 1
Format settings, QPel : No
Format settings, GMC : No warppoints
Format settings, Matrix : Custom
Codec ID : XVID
Codec ID/Hint : XviD
Duration : 1 h 50 min
Bit rate : 1 427 kb/s
Width : 720 pixels
Height : 304 pixels
Display aspect ratio : 2.35:1
Frame rate : 23.976 (24000/1001) FPS
Color space : YUV
Chroma subsampling : 4:2:0
Bit depth : 8 bits
Scan type : Progressive
Compression mode : Lossy
Bits/(Pixel*Frame) : 0.272
Stream size : 1.11 GiB (78%)
Writing library : XviD 73
Audio
ID : 1
Format : AC-3
Format/Info : Audio Coding 3
Mode extension : CM (complete main)
Format settings, Endianness : Big
Codec ID : 2000
Duration : 1 h 50 min
Bit rate mode : Constant
Bit rate : 384 kb/s
Channel(s) : 2 channels
Channel positions : Front: L R
Sampling rate : 48.0 kHz
Frame rate : 31.250 FPS (1536 spf)
Compression mode : Lossy
Stream size : 305 MiB (21%)
Alignment : Split accross interleaves
Interleave, duration : 42 ms (1.00 video frame)
Interleave, preload duration : 500 ms
Download / Скачать

Хотите скачать бесплатно? Зарегистрируйтесь на сайте (ссылка на регистрацию). Pirat.ca - самый быстрый торрент трекер в рунете!

Как скачивать  ·   Что такое торрент  ·   Рейтинг и ограничения

redfield

Морской Волк

Пост 16-Июл-2018 21:24 (спустя 2 дня 8 часов)

[Q] 

И что ни что не пишем?=)) Совсем на всю голову?
[Профиль]  [ЛС] 

LEXo

Штурман

Пост 19-Июл-2018 19:06 (спустя 2 дня 21 час)

[Q] 

Да брат)) на всю. Сам то смотрел или опять сопли?
Добавлено спустя 56 секунд:
У тебя болк волше.

_________________
Волка ноги кормят.
[Профиль]  [ЛС] 

exelero07

Гроза морей

Пост 20-Июл-2018 23:22 (спустя 1 день 4 часа)

[Q] 

так себе комедия, можно пропустить
[Профиль]  [ЛС] 

ketzer

Корсар

Пост 25-Июл-2018 00:43 (спустя 4 дня)

[Q] 

Слабенько-слабенько. До шоу Эми Шумер никак не дотягивает. Вроде как лёгкая комедия, мотивирующая, т.е. со смыслом, но вряд ли потенциальная аудитория этот смысл воспримет всерьёз.
[Профиль]  [ЛС] 

kaktus

Корсар

Пост 25-Июл-2018 20:45 (спустя 20 часов)

[Q] 

В каком месте она красотка?
[Профиль]  [ЛС] 

ketzer

Корсар

Пост 31-Июл-2018 02:28 (спустя 5 дней)

[Q] 

829350В каком месте она красотка?
Вырезано цензурой.
[Профиль]  [ЛС] 

SwordFish

Корсар

1335

Пост 19-Сен-2018 22:49 (спустя 1 месяц 19 дней)

[Q] 

Смотрибельная комедия на разок. Местами даже не плохо.
[Профиль]  [ЛС] 
Показать сообщения:    
Ответить на тему

Текущее время: Сегодня 09:20

Часовой пояс: GMT + 4



Вы не можете начинать темы
Вы не можете отвечать на сообщения
Вы не можете редактировать свои сообщения
Вы не можете удалять свои сообщения
Вы не можете голосовать в опросах
Вы не можете прикреплять файлы к сообщениям
Вы не можете скачивать файлы

Майнать ▼