(Rap Rock, Alternative Rock, Hip Hop, Nu Metal) Hollywood Undead - V - October 27, 2017 [FLAC, tracks+.cue, lossless]

Ответить на тему
 
Автор
Сообщение

Пост 31-Июл-2018 04:28

[Q] 

Дядя Вова

Гроза морей

-Hollywood Undead - V-- Год издания: October 27, 2017
Страна: USA
Жанр: Rap Rock, Alternative Rock, Hip Hop, Nu Metal
Продолжительность: 00:52:01-Лейбл издания: Interscope Records
Тип альбома: Master
Страна-выпуска диска: USA
Формат: FLAC
Битрейт аудио: lossless
Тип рипа: tracks+.cue
Наличие сканов в содержимом раздачи: нет-
1. "California Dreaming" Sean Gould 3:54
2. "Whatever It Takes" Jordon Terrel 3:07
3. "Bad Moon" Jorel Decker 3:52
4. "Ghost Beach" 3:54
5. "Broken Record" Terrel 3:39
6. "Nobody's Watching" Decker 3:58
7. "Renegade" Courtney Ballard 3:03
8. "Black Cadillac" (featuring B-Real) Decker 3:47
9. "Pray (Put 'Em in the Dirt)" Griffin Boice 4:24
10. "Cashed Out" Christian Dold 3:29
11. "Riot" Terrel 3:47
12. "We Own the Night" Gould 4:02
13. "Bang Bang" 3:40
14. "Your Life" Ballard, Jarod Poythress 3:25
Exact Audio Copy V1.3 from 2. September 2016
EAC extraction logfile from 6. July 2018, 23:45
Hollywood Undead / V
Used drive : DiscSoftVirtual Adapter: 1 ID: 1
Read mode : Secure
Utilize accurate stream : Yes
Defeat audio cache : Yes
Make use of C2 pointers : No
Read offset correction : 0
Overread into Lead-In and Lead-Out : No
Fill up missing offset samples with silence : Yes
Delete leading and trailing silent blocks : No
Null samples used in CRC calculations : Yes
Used interface : Native Win32 interface for Win NT & 2000
Gap handling : Appended to previous track
Used output format : User Defined Encoder
Selected bitrate : 896 kBit/s
Quality : High
Add ID3 tag : No
Command line compressor : E:\Exact Audio Copy\FLAC\FLAC.EXE
Additional command line options : -8 -V -T "ARTIST=%artist%" -T "TITLE=%title%" -T "ALBUM=%albumtitle%" -T "DATE=%year%" -T "TRACKNUMBER=%tracknr%" -T "GENRE=%genre%" -T "COMMENT=%comment%" -T "ALBUMARTIST=%albuminterpret%" -T "COMPOSER=%composer%" %haslyrics%--tag-from-file=LYRICS="%lyricsfile%"%haslyrics% -T "DISCNUMBER=%cdnumber%" -T "TOTALDISCS=%totalcds%" -T "TOTALTRACKS=%numtracks%" %hascover%--picture="%coverfile%"%hascover% %source% -o %dest%
TOC of the extracted CD
Track | Start | Length | Start sector | End sector
---------------------------------------------------------
1 | 0:00.00 | 3:54.62 | 0 | 17611
2 | 3:54.62 | 3:07.49 | 17612 | 31685
3 | 7:02.36 | 3:52.12 | 31686 | 49097
4 | 10:54.48 | 3:54.51 | 49098 | 66698
5 | 14:49.24 | 3:39.46 | 66699 | 83169
6 | 18:28.70 | 3:58.51 | 83170 | 101070
7 | 22:27.46 | 3:03.55 | 101071 | 114850
8 | 25:31.26 | 3:47.43 | 114851 | 131918
9 | 29:18.69 | 4:24.07 | 131919 | 151725
10 | 33:43.01 | 3:29.28 | 151726 | 167428
11 | 37:12.29 | 3:47.66 | 167429 | 184519
12 | 41:00.20 | 4:02.43 | 184520 | 202712
13 | 45:02.63 | 3:40.63 | 202713 | 219275
14 | 48:43.51 | 3:25.66 | 219276 | 234716
Track 1
Filename F:\Hollywood Undead - V (2017) [CD FLAC]\01. California Dreaming.wav
Pre-gap length 0:00:02.00
Peak level 97.8 %
Extraction speed 11.6 X
Track quality 100.0 %
Test CRC 4A69A243
Copy CRC 4A69A243
Copy OK
Track 2
Filename F:\Hollywood Undead - V (2017) [CD FLAC]\02. Whatever It Takes.wav
Peak level 98.2 %
Extraction speed 9.5 X
Track quality 100.0 %
Test CRC D421A49F
Copy CRC D421A49F
Copy OK
Track 3
Filename F:\Hollywood Undead - V (2017) [CD FLAC]\03. Bad Moon.wav
Peak level 98.3 %
Extraction speed 9.7 X
Track quality 100.0 %
Test CRC 72C7142F
Copy CRC 72C7142F
Copy OK
Track 4
Filename F:\Hollywood Undead - V (2017) [CD FLAC]\04. Ghost Beach.wav
Peak level 97.8 %
Extraction speed 11.4 X
Track quality 100.0 %
Test CRC C169C22A
Copy CRC C169C22A
Copy OK
Track 5
Filename F:\Hollywood Undead - V (2017) [CD FLAC]\05. Broken Record.wav
Peak level 97.6 %
Extraction speed 10.3 X
Track quality 100.0 %
Test CRC D9E8E955
Copy CRC D9E8E955
Copy OK
Track 6
Filename F:\Hollywood Undead - V (2017) [CD FLAC]\06. Nobody's Watching.wav
Peak level 98.8 %
Extraction speed 17.9 X
Track quality 100.0 %
Test CRC F53E43CA
Copy CRC F53E43CA
Copy OK
Track 7
Filename F:\Hollywood Undead - V (2017) [CD FLAC]\07. Renegade.wav
Peak level 97.9 %
Extraction speed 17.7 X
Track quality 100.0 %
Test CRC AC24E454
Copy CRC AC24E454
Copy OK
Track 8
Filename F:\Hollywood Undead - V (2017) [CD FLAC]\08. Black Cadillac (feat. B-Real).wav
Peak level 98.0 %
Extraction speed 18.1 X
Track quality 100.0 %
Test CRC 33A21194
Copy CRC 33A21194
Copy OK
Track 9
Filename F:\Hollywood Undead - V (2017) [CD FLAC]\09. Pray (Put 'Em in the Dirt).wav
Peak level 97.7 %
Extraction speed 20.0 X
Track quality 100.0 %
Test CRC 9F0670E6
Copy CRC 9F0670E6
Copy OK
Track 10
Filename F:\Hollywood Undead - V (2017) [CD FLAC]\10. Cashed Out.wav
Peak level 97.2 %
Extraction speed 20.8 X
Track quality 100.0 %
Test CRC AFF095A7
Copy CRC AFF095A7
Copy OK
Track 11
Filename F:\Hollywood Undead - V (2017) [CD FLAC]\11. Riot.wav
Peak level 98.1 %
Extraction speed 10.1 X
Track quality 100.0 %
Test CRC 66CA6126
Copy CRC 66CA6126
Copy OK
Track 12
Filename F:\Hollywood Undead - V (2017) [CD FLAC]\12. We Own the Night.wav
Peak level 97.8 %
Extraction speed 15.8 X
Track quality 100.0 %
Test CRC 765FF62D
Copy CRC 765FF62D
Copy OK
Track 13
Filename F:\Hollywood Undead - V (2017) [CD FLAC]\13. Bang Bang.wav
Peak level 98.7 %
Extraction speed 8.2 X
Track quality 100.0 %
Test CRC DBD8B5D8
Copy CRC DBD8B5D8
Copy OK
Track 14
Filename F:\Hollywood Undead - V (2017) [CD FLAC]\14. Your Life.wav
Peak level 97.9 %
Extraction speed 16.1 X
Track quality 100.0 %
Test CRC 35B3FE1C
Copy CRC 35B3FE1C
Copy OK
No errors occurred
End of status report
---- CUETools DB Plugin V2.1.6
[CTDB TOCID: _b3b..fAMJgq.Sggs.za2Rpq5Mg-] found
Submit result: unrecognized or virtual drive
Track | CTDB Status
1 | (80/80) Accurately ripped
2 | (80/80) Accurately ripped
3 | (80/80) Accurately ripped
4 | (80/80) Accurately ripped
5 | (80/80) Accurately ripped
6 | (80/80) Accurately ripped
7 | (80/80) Accurately ripped
8 | (80/80) Accurately ripped
9 | (80/80) Accurately ripped
10 | (80/80) Accurately ripped
11 | (80/80) Accurately ripped
12 | (80/80) Accurately ripped
13 | (80/80) Accurately ripped
14 | (80/80) Accurately ripped
==== Log checksum 61869D6F8622B171863576DBDE2CC6FEC3E547179181ED39E108F2DCA35CDACA ====
REM GENRE "Alt. Rock"
REM DATE 2017
REM DISCID A90C390E
REM COMMENT "ExactAudioCopy v1.3"
PERFORMER "Hollywood Undead"
TITLE "V"
REM COMPOSER ""
FILE "01. California Dreaming.wav" WAVE
TRACK 01 AUDIO
TITLE "California Dreaming"
PERFORMER "Hollywood Undead"
REM COMPOSER ""
INDEX 01 00:00:00
FILE "02. Whatever It Takes.wav" WAVE
TRACK 02 AUDIO
TITLE "Whatever It Takes"
PERFORMER "Hollywood Undead"
REM COMPOSER ""
INDEX 01 00:00:00
FILE "03. Bad Moon.wav" WAVE
TRACK 03 AUDIO
TITLE "Bad Moon"
PERFORMER "Hollywood Undead"
REM COMPOSER ""
INDEX 01 00:00:00
FILE "04. Ghost Beach.wav" WAVE
TRACK 04 AUDIO
TITLE "Ghost Beach"
PERFORMER "Hollywood Undead"
REM COMPOSER ""
INDEX 01 00:00:00
FILE "05. Broken Record.wav" WAVE
TRACK 05 AUDIO
TITLE "Broken Record"
PERFORMER "Hollywood Undead"
REM COMPOSER ""
INDEX 01 00:00:00
FILE "06. Nobody's Watching.wav" WAVE
TRACK 06 AUDIO
TITLE "Nobody's Watching"
PERFORMER "Hollywood Undead"
REM COMPOSER ""
INDEX 01 00:00:00
FILE "07. Renegade.wav" WAVE
TRACK 07 AUDIO
TITLE "Renegade"
PERFORMER "Hollywood Undead"
REM COMPOSER ""
INDEX 01 00:00:00
FILE "08. Black Cadillac (feat. B-Real).wav" WAVE
TRACK 08 AUDIO
TITLE "Black Cadillac (feat. B-Real)"
PERFORMER "Hollywood Undead"
REM COMPOSER ""
INDEX 01 00:00:00
FILE "09. Pray (Put 'Em in the Dirt).wav" WAVE
TRACK 09 AUDIO
TITLE "Pray (Put 'Em in the Dirt)"
PERFORMER "Hollywood Undead"
REM COMPOSER ""
INDEX 01 00:00:00
FILE "10. Cashed Out.wav" WAVE
TRACK 10 AUDIO
TITLE "Cashed Out"
PERFORMER "Hollywood Undead"
REM COMPOSER ""
INDEX 01 00:00:00
FILE "11. Riot.wav" WAVE
TRACK 11 AUDIO
TITLE "Riot"
PERFORMER "Hollywood Undead"
REM COMPOSER ""
INDEX 01 00:00:00
FILE "12. We Own the Night.wav" WAVE
TRACK 12 AUDIO
TITLE "We Own the Night"
PERFORMER "Hollywood Undead"
REM COMPOSER ""
INDEX 01 00:00:00
FILE "13. Bang Bang.wav" WAVE
TRACK 13 AUDIO
TITLE "Bang Bang"
PERFORMER "Hollywood Undead"
REM COMPOSER ""
INDEX 01 00:00:00
FILE "14. Your Life.wav" WAVE
TRACK 14 AUDIO
TITLE "Your Life"
PERFORMER "Hollywood Undead"
REM COMPOSER ""
INDEX 01 00:00:00


Download / Скачать

Хотите скачать бесплатно? Зарегистрируйтесь на сайте (ссылка на регистрацию). Pirat.ca - самый быстрый торрент трекер в рунете!

Как скачивать  ·   Что такое торрент  ·   Рейтинг и ограничения

Показать сообщения:    
Ответить на тему

Текущее время: Сегодня 03:38

Часовой пояс: GMT + 4



Вы не можете начинать темы
Вы не можете отвечать на сообщения
Вы не можете редактировать свои сообщения
Вы не можете удалять свои сообщения
Вы не можете голосовать в опросах
Вы не можете прикреплять файлы к сообщениям
Вы не можете скачивать файлы

Майнать ▼