По законам военного времени / Сезон: 2 / Серии: 1-8 из 8 (Максим Мехеда) [2018 г., Драма, военный, SATRip]

Ответить на тему
 
Автор
Сообщение

Пост 08-Май-2018 17:44

[Q] 

GMCJimmy

Легенда

-По законам военного времени-- Производство: Россия, Украина, Кинокомпания "Star Media"
Жанр: Драма, военный, исторический
Год выпуска: 2018 г.
Продолжительность: ~51 мин/серия
Российская премьера: 5 мая 2018 г.
Режиссёр: Максим Мехеда-В ролях: Екатерина Климова, Евгений Воловенко, Максим Дрозд, Сергей Деньга, Алексей Шутов, Екатерина Соломатина, Павел Стонт, Дмитрий Сарансков, Светлана Зельбет, Андрей Клименков, Станислав Боклан, Виктория Литвиненко, Анатолий Зиновенко, Александр Панкратов-Чёрный-Описание: Осень 1941 года. Чудом вырвавшиеся из киевского котла, следователи военной прокуратуры Рокотов, Мирский и Елагина прибывают в Харьков, где уже полным ходом идет эвакуация. У них на руках важные сведения о деятельности немецкой шпионской организации. Новые обстоятельства вынуждают их задержаться в Харькове. Ведь вместе с эвакуируемыми предприятиями, под видом беженцев, далее на восток движутся группы немецких диверсантов, цель которых – диверсии и саботажи на военных заводах. Пытаясь раскрыть каналы переправки лазутчиков в советский тыл, Рокотов с Елагиной узнают, что действующая в Харькове организация напрямую связана с киевской группировкой, раскрытой ими за несколько часов до сдачи города. А куратор обеих этих группировок занимает высокий пост в Главной военной прокуратуре.-Качество видео: SATRip
Контейнер: AVI
Видео кодек: XviD
Аудио кодек: MP3
Видео: 720х400 , 1650 kbps , 25,000 fps , 0.229 Бит/Пиксел
Аудио: 192 kbps , 2 ch , 48,0 kHz
Cубтитры: отсутствуют
Формат : AVI
Формат/Информация : Audio Video Interleave
Размер файла : 686 Мбайт
Продолжительность : 51 м.
Общий поток : 1852 Кбит/сек
Программа кодирования : VirtualDubMod 1.5.10.3 | www.virtualdub-fr.org || (build 2550/release)
Библиотека кодирования : VirtualDubMod build 2550/release
Видео
Идентификатор : 0
Формат : MPEG-4 Visual
Профиль формата : Advanced [email protected]
Параметр BVOP формата : 1
Параметр QPel формата : Нет
Параметр GMC формата : Без точки перехода
Параметр матрицы формата : Выборочная
Идентификатор кодека : XVID
Идентификатор кодека/Подсказка : XviD
Продолжительность : 51 м.
Битрейт : 1650 Кбит/сек
Ширина : 720 пикселей
Высота : 400 пикселей
Соотношение сторон : 16:9
Частота кадров : 25,000 кадров/сек
Цветовое пространство : YUV
Субдискретизация насыщенности : 4:2:0
Битовая глубина : 8 бит
Тип развёртки : Прогрессивная
Метод сжатия : С потерями
Бит/(Пиксели*Кадры) : 0.229
Размер потока : 611 Мбайт (89%)
Библиотека кодирования : XviD 1.2.1 (UTC 2008-12-04)
Аудио
Идентификатор : 1
Формат : MPEG Audio
Версия формата : Version 1
Профиль формата : Layer 3
Режим : Joint stereo
Расширение режима : MS Stereo
Идентификатор кодека : 55
Идентификатор кодека/Подсказка : MP3
Продолжительность : 51 м.
Вид битрейта : Постоянный
Битрейт : 192 Кбит/сек
Каналы : 2 канала
Частота : 48,0 КГц
Метод сжатия : С потерями
Размер потока : 71,1 Мбайт (10%)
Выравнивание : Соединение по промежуткам
Продолжительность промежутка : 40 мс. (1,00 видеокадр)
Время предзагрузки промежутка : 504 мс.
Библиотека кодирования : LAME3.99r
Настройки программы : -m j -V 4 -q 2 -lowpass 18.6 -b 192
БЕЗ РЕКЛАМЫ!
Download / Скачать

Хотите скачать бесплатно? Зарегистрируйтесь на сайте (ссылка на регистрацию). Pirat.ca - самый быстрый торрент трекер в рунете!

Как скачивать  ·   Что такое торрент  ·   Рейтинг и ограничения

pdb08

Легенда

73

Пост 08-Май-2018 19:28 (спустя 1 час 44 минуты)

[Q] 

Спасибо! ( не смотрел вторую часть), но качается)))) Автору респект!!!

_________________
[Профиль]  [ЛС] 

Пост 09-Май-2018 12:06 (спустя 16 часов)

Топик был перенесен из форума Отечественные сериалы (Трюм) в форум "Эхо войны"
erchine
 

Victorsalata

Флибустьер

Пост 29-Авг-2018 17:48 (спустя 3 месяца 20 дней)

[Q] 

Спасибо раздающему. Нормальный сериал.
[Профиль]  [ЛС] 
Показать сообщения:    
Ответить на тему

Текущее время: Сегодня 09:48

Часовой пояс: GMT + 4



Вы не можете начинать темы
Вы не можете отвечать на сообщения
Вы не можете редактировать свои сообщения
Вы не можете удалять свои сообщения
Вы не можете голосовать в опросах
Вы не можете прикреплять файлы к сообщениям
Вы не можете скачивать файлы

Майнать ▼