(Rock)VA - Driven By Rock (5CD) - 2018 [FLAC, tracks +.cue, lossless]

Ответить на тему
 
Автор
Сообщение

Пост 05-Сен-2018 12:29

[Q] 

sergej644

-VA - Driven By Rock (5CD)--
Год издания: 2018
Страна: n/a
Жанр: Rock
Продолжительность: 06:06:25-Лейбл издания: Universal Music
Страна-выпуска диска: EU
Номер по каталогу: DRIVEBX001-Формат: FLAC
Битрейт аудио: Lossless
Тип рипа: tracks +.cue
Наличие сканов в содержимом раздачи: да
-

01. Papa Roach - Last Resort (3:21)
02. Fall Out Boy - Centuries (3:48)
03. Queens Of The Stone Age - No One Knows (4:15)
04. The Hives - Walk Idiot Walk (3:31)
05. Hole - Celebrity Skin (2:42)
06. The Gossip - Standing In The Way Of Control (4:17)
07. 3 Doors Down - In The Dark (3:43)
08. Blink-182 - All The Small Things (2:47)
09. The Cooper Temple Clause - Promises Promises (3:19)
10. Anthrax - Got The Time (2:45)
11. Marilyn Manson - Beautiful People (3:39)
12. Megadeth - Symphony Of Destruction (4:06)
13. Motorhead - Bomber (3:40)
14. Lenny Kravitz - Fly Away (3:43)
15. Nazareth - My White Bicycle (3:26)
16. Ugly Kid Joe - Everything About You (4:13)
17. Super Furry Animals - Golden Retriever (2:25)
18. The Fratellis - Shotgun Shoes (4:24)
19. Sonic Youth - Bull In The Heather (3:03)
20. Kubb - Wicked Soul (3:44)

01. Blondie - One Way Or Another (3:32)
02. The Knack - My Sharona (4:00)
03. Status Quo - Rocking All Over The World (3:35)
04. Thin Lizzy - Don't Believe A Word (2:18)
05. The Sweet - The Ballroom Blitz (4:02)
06. Kiss - Crazy Crazy Nights (3:46)
07. Little Angels - Ten Miles High (3:13)
08. Nazareth - Hair Of The Dog (4:11)
09. Joe Walsh - Rocky Mountain Way (3:39)
10. Lynyrd Skynyrd - Sweet Home Alabama (4:44)
11. Bachman Turner Overdrive - You Ain't Seen Nothing Yet (3:37)
12. Free - Alright Now (3:48)
13. The Troggs - Wild Thing (2:34)
14. The Velvet Underground - I'm Waiting For The Man (4:38)
15. Squeeze - Tempted (4:01)
16. Monster Magnet - Space Lord (4:24)
17. Simple Minds - Don't You Forget About Me (4:21)
18. 1927 - That's When I Think Of You (4:12)
19. The Silencers - Painted Moon (4:03)
20. The Allman Brothers - Jessica (4:08)

01. Billy Idol - Scream (4:43)
02. Uriah Heep - Easy Livin' (2:35)
03. Magnum - Just Like An Arrow (3:21)
04. Therapy? - Nowhere (2:25)
05. Motorhead - Overkill (5:12)
06. Cinderella - Gypsy Road (3:49)
07. Angel Witch - Angel Witch (3:22)
08. Dokken - Breaking The Chains (Live) (3:56)
09. Celtic Frost - Into The Crypts Rays (3:40)
10. Y&T - Mean Streak (4:06)
11. Gary Moore - Nuclear Attack (5:08)
12. The Call - Let The Day Begin (3:50)
13. The Damned - Eloise (5:09)
14. Thunder - Cosmetic Punk (3:38)
15. The Alarm - Sixty Eight Guns (3:15)
16. The Pink Fairies - Between The Lines (3:14)
17. Wreckless Eric - Whole Wide World (2:52)
18. The Runaways - Cherry Bomb (2:18)
19. Larry Wallis - Police Car (3:18)
20. The Members - Solitary Confinement (3:54)

01. Stereophonics - Dakota (4:57)
02. The Bravery - Honest Mistake (3:40)
03. Black Rebel Motorcycle Club - Ain't No Easy Way (2:37)
04. Cher - If I Could Turn Back Time (3:53)
05. Engineers - Come In Out Of The Rain (3:40)
06. T'Pau - China In Your Hand (4:05)
07. Thunder - Something About You (5:03)
08. Corrosion Of Conformity - Stare Too Long (4:55)
09. Phil Lynott - Kings Call (3:38)
10. Roxy Music - More Than This (4:10)
11. Bonnie Tyler - It's A Heartache (3:31)
12. Robert Palmer - Bad Case Of Loving You (Doctor Doctor) (3:11)
13. Rose Tattoo - Rock 'N' Roll Outlaw (3:21)
14. Asia - Don't Cry (3:36)
15. Frankie Goes To Hollywood - Born To Run (3:56)
16. Thin Lizzy - The Boys Are Back In Town (4:27)
17. Emerson, Lake & Palmer - Fanfare For The Common Man (2:59)
18. Status Quo - Pictures Of Matchstick Man (3:10)
19. Billy Squire - The Stroke (3:38)
20. Bachman Turner Overdrive - Roll On Down The Highway (3:57)

01. The Hives - Tick Tick Boom (3:33)
02. George Thorogood & The Destroyers - Bad To The Bone (3:38)
03. The Stranglers - All Day And All Of The Night (2:30)
04. The Sweet - Block Buster! (3:12)
05. Mungo Jerry - Baby Jump (4:04)
06. Sham 69 - If The Kids Are United (3:44)
07. Toy Dolls - No Particular Place To Go (2:22)
08. Tenpole Tudor - Swords Of A Thousand Men (2:56)
09. Girlschool - Race With The Devil (2:51)
10. Samson - Ridin' With Angels (3:39)
11. Rush - Spirit Of Radio (4:57)
12. Hanoi Rocks - Oriental Beat (3:06)
13. Gary Moore - Really Gonna Rock Tonight (3:49)
14. Magnum - The Spirit (4:18)
15. Venom - To Hell And Back (3:02)
16. Gene Simmons - Radioactive (2:54)
17. New York Dolls - Bad Girl (3:04)
18. Be Bop Deluxe - Ships In The Night (4:02)
19. Gun - Better Days (3:42)
20. Atomic Rooster - Tomorrow Night (3:14)
-
Код:
Exact Audio Copy V1.3 from 2. September 2016
EAC extraction logfile from 3. August 2018, 18:32
Various / Driven By - Rock - CD1
Used drive  : HL-DT-STDVDRAM GSA-E40N   Adapter: 1  ID: 1
Read mode               : Secure
Utilize accurate stream : Yes
Defeat audio cache      : No
Make use of C2 pointers : Yes
Read offset correction                      : 667
Overread into Lead-In and Lead-Out          : No
Fill up missing offset samples with silence : Yes
Delete leading and trailing silent blocks   : No
Null samples used in CRC calculations       : Yes
Used interface                              : Native Win32 interface for Win NT & 2000
Gap handling                                : Not detected, thus appended to previous track
Used output format              : User Defined Encoder
Selected bitrate                : 896 kBit/s
Quality                         : High
Add ID3 tag                     : No
Command line compressor         : C:\Program Files (x86)\Exact Audio Copy\FLAC\FLAC.EXE
Additional command line options : -6 -V -T "ARTIST=%artist%" -T "TITLE=%title%" -T "ALBUM=%albumtitle%" -T "DATE=%year%" -T "TRACKNUMBER=%tracknr%" -T "GENRE=%genre%" -T "COMMENT=%comment%" -T "BAND=%albuminterpret%" -T "ALBUMARTIST=%albuminterpret%" -T "COMPOSER=%composer%" %haslyrics%--tag-from-file=LYRICS="%lyricsfile%"%haslyrics% -T "DISCNUMBER=%cdnumber%" -T "TOTALDISCS=%totalcds%" -T "TOTALTRACKS=%numtracks%" %hascover%--picture="%coverfile%"%hascover% %source% -o %dest%
TOC of the extracted CD
     Track |   Start  |  Length  | Start sector | End sector
    ---------------------------------------------------------
        1  |  0:00.00 |  3:21.22 |         0    |    15096
        2  |  3:21.22 |  3:48.17 |     15097    |    32213
        3  |  7:09.39 |  4:14.58 |     32214    |    51321
        4  | 11:24.22 |  3:31.24 |     51322    |    67170
        5  | 14:55.46 |  2:42.15 |     67171    |    79335
        6  | 17:37.61 |  4:17.12 |     79336    |    98622
        7  | 21:54.73 |  3:43.10 |     98623    |   115357
        8  | 25:38.08 |  2:47.21 |    115358    |   127903
        9  | 28:25.29 |  3:19.12 |    127904    |   142840
       10  | 31:44.41 |  2:45.19 |    142841    |   155234
       11  | 34:29.60 |  3:38.67 |    155235    |   171651
       12  | 38:08.52 |  4:05.57 |    171652    |   190083
       13  | 42:14.34 |  3:39.74 |    190084    |   206582
       14  | 45:54.33 |  3:42.59 |    206583    |   223291
       15  | 49:37.17 |  3:26.21 |    223292    |   238762
       16  | 53:03.38 |  4:13.32 |    238763    |   257769
       17  | 57:16.70 |  2:25.22 |    257770    |   268666
       18  | 59:42.17 |  4:23.73 |    268667    |   288464
       19  | 64:06.15 |  3:03.26 |    288465    |   302215
       20  | 67:09.41 |  3:44.11 |    302216    |   319026
Track  1
     Filename A:\PsPBuRnOuT's MUSIC\ROCK\DRIVEN BY - ROCK\DRIVEN BY - ROCK - CD1\01.Papa Roach - Last Resort.wav
     Peak level 97.6 %
     Extraction speed 16.1 X
     Track quality 100.0 %
     Copy CRC 6ED81E66
     Track not present in AccurateRip database
     Copy OK
Track  2
     Filename A:\PsPBuRnOuT's MUSIC\ROCK\DRIVEN BY - ROCK\DRIVEN BY - ROCK - CD1\02.Fall Out Boy - Centuries.wav
     Peak level 82.8 %
     Extraction speed 19.8 X
     Track quality 100.0 %
     Copy CRC 3878B744
     Track not present in AccurateRip database
     Copy OK
Track  3
     Filename A:\PsPBuRnOuT's MUSIC\ROCK\DRIVEN BY - ROCK\DRIVEN BY - ROCK - CD1\03.Queens Of The Stone Age - No One Knows.wav
     Peak level 83.1 %
     Extraction speed 19.9 X
     Track quality 100.0 %
     Copy CRC 69791AD0
     Track not present in AccurateRip database
     Copy OK
Track  4
     Filename A:\PsPBuRnOuT's MUSIC\ROCK\DRIVEN BY - ROCK\DRIVEN BY - ROCK - CD1\04.The Hives - Walk Idiot Walk.wav
     Peak level 89.1 %
     Extraction speed 23.0 X
     Track quality 100.0 %
     Copy CRC 87057A17
     Track not present in AccurateRip database
     Copy OK
Track  5
     Filename A:\PsPBuRnOuT's MUSIC\ROCK\DRIVEN BY - ROCK\DRIVEN BY - ROCK - CD1\05.Hole - Celebrity Skin.wav
     Peak level 99.8 %
     Extraction speed 19.3 X
     Track quality 99.8 %
     Copy CRC 018E71AD
     Track not present in AccurateRip database
     Copy OK
Track  6
     Filename A:\PsPBuRnOuT's MUSIC\ROCK\DRIVEN BY - ROCK\DRIVEN BY - ROCK - CD1\06.The Gossip - Standing In The Way Of Control.wav
     Peak level 100.0 %
     Extraction speed 21.7 X
     Track quality 99.9 %
     Copy CRC 3429813E
     Track not present in AccurateRip database
     Copy OK
Track  7
     Filename A:\PsPBuRnOuT's MUSIC\ROCK\DRIVEN BY - ROCK\DRIVEN BY - ROCK - CD1\07.3 Doors Down - In The Dark.wav
     Peak level 100.0 %
     Extraction speed 26.6 X
     Track quality 100.0 %
     Copy CRC DCCBD3A0
     Track not present in AccurateRip database
     Copy OK
Track  8
     Filename A:\PsPBuRnOuT's MUSIC\ROCK\DRIVEN BY - ROCK\DRIVEN BY - ROCK - CD1\08.Blink-182 - All The Small Things.wav
     Peak level 99.0 %
     Extraction speed 22.2 X
     Track quality 99.8 %
     Copy CRC 40FA687E
     Track not present in AccurateRip database
     Copy OK
Track  9
     Filename A:\PsPBuRnOuT's MUSIC\ROCK\DRIVEN BY - ROCK\DRIVEN BY - ROCK - CD1\09.The Cooper Temple Clause - Promises Promises.wav
     Peak level 98.5 %
     Extraction speed 22.8 X
     Track quality 99.8 %
     Copy CRC 887DE2E0
     Track not present in AccurateRip database
     Copy OK
Track 10
     Filename A:\PsPBuRnOuT's MUSIC\ROCK\DRIVEN BY - ROCK\DRIVEN BY - ROCK - CD1\10.Anthrax - Got The Time.wav
     Peak level 100.0 %
     Extraction speed 24.5 X
     Track quality 100.0 %
     Copy CRC E9A8D944
     Track not present in AccurateRip database
     Copy OK
Track 11
     Filename A:\PsPBuRnOuT's MUSIC\ROCK\DRIVEN BY - ROCK\DRIVEN BY - ROCK - CD1\11.Marilyn Manson - Beautiful People.wav
     Peak level 100.0 %
     Extraction speed 25.5 X
     Track quality 99.9 %
     Copy CRC 507DD132
     Track not present in AccurateRip database
     Copy OK
Track 12
     Filename A:\PsPBuRnOuT's MUSIC\ROCK\DRIVEN BY - ROCK\DRIVEN BY - ROCK - CD1\12.Megadeth - Symphony Of Destruction.wav
     Peak level 99.6 %
     Extraction speed 30.4 X
     Track quality 100.0 %
     Copy CRC 0CFC50EB
     Track not present in AccurateRip database
     Copy OK
Track 13
     Filename A:\PsPBuRnOuT's MUSIC\ROCK\DRIVEN BY - ROCK\DRIVEN BY - ROCK - CD1\13.Motorhead - Bomber.wav
     Peak level 100.0 %
     Extraction speed 31.4 X
     Track quality 100.0 %
     Copy CRC 55D031FC
     Track not present in AccurateRip database
     Copy OK
Track 14
     Filename A:\PsPBuRnOuT's MUSIC\ROCK\DRIVEN BY - ROCK\DRIVEN BY - ROCK - CD1\14.Lenny Kravitz - Fly Away.wav
     Peak level 89.0 %
     Extraction speed 34.2 X
     Track quality 100.0 %
     Copy CRC 65314434
     Track not present in AccurateRip database
     Copy OK
Track 15
     Filename A:\PsPBuRnOuT's MUSIC\ROCK\DRIVEN BY - ROCK\DRIVEN BY - ROCK - CD1\15.Nazareth - My White Bicycle.wav
     Peak level 97.7 %
     Extraction speed 32.4 X
     Track quality 100.0 %
     Copy CRC 536D03FD
     Track not present in AccurateRip database
     Copy OK
Track 16
     Filename A:\PsPBuRnOuT's MUSIC\ROCK\DRIVEN BY - ROCK\DRIVEN BY - ROCK - CD1\16.Ugly Kid Joe - Everything About You.wav
     Peak level 100.0 %
     Extraction speed 32.5 X
     Track quality 100.0 %
     Copy CRC A8D515B4
     Track not present in AccurateRip database
     Copy OK
Track 17
     Filename A:\PsPBuRnOuT's MUSIC\ROCK\DRIVEN BY - ROCK\DRIVEN BY - ROCK - CD1\17.Super Furry Animals - Golden Retriever.wav
     Peak level 100.0 %
     Extraction speed 25.7 X
     Track quality 99.8 %
     Copy CRC 2E2E1C6A
     Track not present in AccurateRip database
     Copy OK
Track 18
     Filename A:\PsPBuRnOuT's MUSIC\ROCK\DRIVEN BY - ROCK\DRIVEN BY - ROCK - CD1\18.The Fratellis - Shotgun Shoes.wav
     Peak level 98.9 %
     Extraction speed 35.0 X
     Track quality 100.0 %
     Copy CRC 46CC4B54
     Track not present in AccurateRip database
     Copy OK
Track 19
     Filename A:\PsPBuRnOuT's MUSIC\ROCK\DRIVEN BY - ROCK\DRIVEN BY - ROCK - CD1\19.Sonic Youth - Bull In The Heather.wav
     Peak level 100.0 %
     Extraction speed 37.1 X
     Track quality 100.0 %
     Copy CRC 51E50719
     Track not present in AccurateRip database
     Copy OK
Track 20
     Filename A:\PsPBuRnOuT's MUSIC\ROCK\DRIVEN BY - ROCK\DRIVEN BY - ROCK - CD1\20.Kubb - Wicked Soul.wav
     Peak level 95.5 %
     Extraction speed 36.3 X
     Track quality 100.0 %
     Copy CRC 6A03DB2F
     Track not present in AccurateRip database
     Copy OK
None of the tracks are present in the AccurateRip database
No errors occurred
End of status report
Код:
Exact Audio Copy V1.3 from 2. September 2016
EAC extraction logfile from 4. August 2018, 16:24
Various / Driven By - Rock - CD2
Used drive  : HL-DT-STDVDRAM GSA-E40N   Adapter: 1  ID: 1
Read mode               : Secure
Utilize accurate stream : Yes
Defeat audio cache      : No
Make use of C2 pointers : Yes
Read offset correction                      : 667
Overread into Lead-In and Lead-Out          : No
Fill up missing offset samples with silence : Yes
Delete leading and trailing silent blocks   : No
Null samples used in CRC calculations       : Yes
Used interface                              : Native Win32 interface for Win NT & 2000
Gap handling                                : Not detected, thus appended to previous track
Used output format              : User Defined Encoder
Selected bitrate                : 896 kBit/s
Quality                         : High
Add ID3 tag                     : No
Command line compressor         : C:\Program Files (x86)\Exact Audio Copy\FLAC\FLAC.EXE
Additional command line options : -6 -V -T "ARTIST=%artist%" -T "TITLE=%title%" -T "ALBUM=%albumtitle%" -T "DATE=%year%" -T "TRACKNUMBER=%tracknr%" -T "GENRE=%genre%" -T "COMMENT=%comment%" -T "BAND=%albuminterpret%" -T "ALBUMARTIST=%albuminterpret%" -T "COMPOSER=%composer%" %haslyrics%--tag-from-file=LYRICS="%lyricsfile%"%haslyrics% -T "DISCNUMBER=%cdnumber%" -T "TOTALDISCS=%totalcds%" -T "TOTALTRACKS=%numtracks%" %hascover%--picture="%coverfile%"%hascover% %source% -o %dest%
TOC of the extracted CD
     Track |   Start  |  Length  | Start sector | End sector
    ---------------------------------------------------------
        1  |  0:00.00 |  3:32.03 |         0    |    15902
        2  |  3:32.03 |  3:59.43 |     15903    |    33870
        3  |  7:31.46 |  3:34.60 |     33871    |    49980
        4  | 11:06.31 |  2:18.08 |     49981    |    60338
        5  | 13:24.39 |  4:02.05 |     60339    |    78493
        6  | 17:26.44 |  3:46.06 |     78494    |    95449
        7  | 21:12.50 |  3:12.38 |     95450    |   109887
        8  | 24:25.13 |  4:10.49 |    109888    |   128686
        9  | 28:35.62 |  3:39.35 |    128687    |   145146
       10  | 32:15.22 |  4:43.52 |    145147    |   166423
       11  | 36:58.74 |  3:36.74 |    166424    |   182697
       12  | 40:35.73 |  3:47.38 |    182698    |   199760
       13  | 44:23.36 |  2:33.57 |    199761    |   211292
       14  | 46:57.18 |  4:38.04 |    211293    |   232146
       15  | 51:35.22 |  4:00.63 |    232147    |   250209
       16  | 55:36.10 |  4:24.35 |    250210    |   270044
       17  | 60:00.45 |  4:20.47 |    270045    |   289591
       18  | 64:21.17 |  4:11.68 |    289592    |   308484
       19  | 68:33.10 |  4:02.44 |    308485    |   326678
       20  | 72:35.54 |  4:08.33 |    326679    |   345311
Track  1
     Filename A:\PsPBuRnOuT's MUSIC\ROCK\DRIVEN BY - ROCK\DRIVEN BY - ROCK - CD2\01.Blondie - One Way Or Another.wav
     Peak level 93.3 %
     Extraction speed 15.0 X
     Track quality 99.9 %
     Copy CRC 6430DC6F
     Track not present in AccurateRip database
     Copy OK
Track  2
     Filename A:\PsPBuRnOuT's MUSIC\ROCK\DRIVEN BY - ROCK\DRIVEN BY - ROCK - CD2\02.The Knack - My Sharona.wav
     Peak level 100.0 %
     Extraction speed 18.3 X
     Track quality 100.0 %
     Copy CRC C01A5B64
     Track not present in AccurateRip database
     Copy OK
Track  3
     Filename A:\PsPBuRnOuT's MUSIC\ROCK\DRIVEN BY - ROCK\DRIVEN BY - ROCK - CD2\03.Status Quo - Rocking All Over The World.wav
     Peak level 86.1 %
     Extraction speed 18.5 X
     Track quality 99.9 %
     Copy CRC 646C3C5D
     Track not present in AccurateRip database
     Copy OK
Track  4
     Filename A:\PsPBuRnOuT's MUSIC\ROCK\DRIVEN BY - ROCK\DRIVEN BY - ROCK - CD2\04.Thin Lizzy - Don't Believe A Word.wav
     Peak level 100.0 %
     Extraction speed 22.1 X
     Track quality 100.0 %
     Copy CRC 3E4D5956
     Track not present in AccurateRip database
     Copy OK
Track  5
     Filename A:\PsPBuRnOuT's MUSIC\ROCK\DRIVEN BY - ROCK\DRIVEN BY - ROCK - CD2\05.The Sweet - The Ballroom Blitz.wav
     Peak level 100.0 %
     Extraction speed 21.7 X
     Track quality 100.0 %
     Copy CRC 32E1BC79
     Track not present in AccurateRip database
     Copy OK
Track  6
     Filename A:\PsPBuRnOuT's MUSIC\ROCK\DRIVEN BY - ROCK\DRIVEN BY - ROCK - CD2\06.Kiss - Crazy Crazy Nights.wav
     Peak level 100.0 %
     Extraction speed 22.3 X
     Track quality 100.0 %
     Copy CRC 88ED399B
     Track not present in AccurateRip database
     Copy OK
Track  7
     Filename A:\PsPBuRnOuT's MUSIC\ROCK\DRIVEN BY - ROCK\DRIVEN BY - ROCK - CD2\07.Little Angels - Ten Miles High.wav
     Peak level 93.6 %
     Extraction speed 26.0 X
     Track quality 100.0 %
     Copy CRC 9FBBD744
     Track not present in AccurateRip database
     Copy OK
Track  8
     Filename A:\PsPBuRnOuT's MUSIC\ROCK\DRIVEN BY - ROCK\DRIVEN BY - ROCK - CD2\08.Nazareth - Hair Of The Dog.wav
     Peak level 87.1 %
     Extraction speed 25.1 X
     Track quality 100.0 %
     Copy CRC 146B5FEC
     Track not present in AccurateRip database
     Copy OK
Track  9
     Filename A:\PsPBuRnOuT's MUSIC\ROCK\DRIVEN BY - ROCK\DRIVEN BY - ROCK - CD2\09.Joe Walsh - Rocky Mountain Way.wav
     Peak level 100.0 %
     Extraction speed 24.9 X
     Track quality 100.0 %
     Copy CRC C530A184
     Track not present in AccurateRip database
     Copy OK
Track 10
     Filename A:\PsPBuRnOuT's MUSIC\ROCK\DRIVEN BY - ROCK\DRIVEN BY - ROCK - CD2\10.Lynyrd Skynyrd - Sweet Home Alabama.wav
     Peak level 100.0 %
     Extraction speed 29.4 X
     Track quality 100.0 %
     Copy CRC 0D4A0B09
     Track not present in AccurateRip database
     Copy OK
Track 11
     Filename A:\PsPBuRnOuT's MUSIC\ROCK\DRIVEN BY - ROCK\DRIVEN BY - ROCK - CD2\11.Bachman Turner Overdrive - You Ain't Seen Nothing Yet.wav
     Peak level 100.0 %
     Extraction speed 26.5 X
     Track quality 100.0 %
     Copy CRC 9DE605BF
     Track not present in AccurateRip database
     Copy OK
Track 12
     Filename A:\PsPBuRnOuT's MUSIC\ROCK\DRIVEN BY - ROCK\DRIVEN BY - ROCK - CD2\12.Free - Alright Now.wav
     Peak level 100.0 %
     Extraction speed 26.3 X
     Track quality 99.9 %
     Copy CRC C8021FB1
     Track not present in AccurateRip database
     Copy OK
Track 13
     Filename A:\PsPBuRnOuT's MUSIC\ROCK\DRIVEN BY - ROCK\DRIVEN BY - ROCK - CD2\13.The Troggs - Wild Thing.wav
     Peak level 100.0 %
     Extraction speed 25.6 X
     Track quality 100.0 %
     Copy CRC 5B33F268
     Track not present in AccurateRip database
     Copy OK
Track 14
     Filename A:\PsPBuRnOuT's MUSIC\ROCK\DRIVEN BY - ROCK\DRIVEN BY - ROCK - CD2\14.The Velvet Underground - I'm Waiting For The Man.wav
     Peak level 97.7 %
     Extraction speed 28.8 X
     Track quality 100.0 %
     Copy CRC 041C6F7D
     Track not present in AccurateRip database
     Copy OK
Track 15
     Filename A:\PsPBuRnOuT's MUSIC\ROCK\DRIVEN BY - ROCK\DRIVEN BY - ROCK - CD2\15.Squeeze - Tempted.wav
     Peak level 100.0 %
     Extraction speed 29.9 X
     Track quality 100.0 %
     Copy CRC 67B7FEBC
     Track not present in AccurateRip database
     Copy OK
Track 16
     Filename A:\PsPBuRnOuT's MUSIC\ROCK\DRIVEN BY - ROCK\DRIVEN BY - ROCK - CD2\16.Monster Magnet - Space Lord.wav
     Peak level 98.8 %
     Extraction speed 29.5 X
     Track quality 99.9 %
     Copy CRC 899A9E2C
     Track not present in AccurateRip database
     Copy OK
Track 17
     Filename A:\PsPBuRnOuT's MUSIC\ROCK\DRIVEN BY - ROCK\DRIVEN BY - ROCK - CD2\17.Simple Minds - Don't You forget About Me.wav
     Peak level 97.7 %
     Extraction speed 30.5 X
     Track quality 100.0 %
     Copy CRC 06E96434
     Track not present in AccurateRip database
     Copy OK
Track 18
     Filename A:\PsPBuRnOuT's MUSIC\ROCK\DRIVEN BY - ROCK\DRIVEN BY - ROCK - CD2\18.1927 - That's When I Think Of You.wav
     Peak level 88.9 %
     Extraction speed 31.1 X
     Track quality 100.0 %
     Copy CRC 686DBFAD
     Track not present in AccurateRip database
     Copy OK
Track 19
     Filename A:\PsPBuRnOuT's MUSIC\ROCK\DRIVEN BY - ROCK\DRIVEN BY - ROCK - CD2\19.The Silencers - Painted Moon.wav
     Peak level 100.0 %
     Extraction speed 35.6 X
     Track quality 100.0 %
     Copy CRC E7BF6703
     Track not present in AccurateRip database
     Copy OK
Track 20
     Filename A:\PsPBuRnOuT's MUSIC\ROCK\DRIVEN BY - ROCK\DRIVEN BY - ROCK - CD2\20.The Allman Brothers - Jessica.wav
     Peak level 90.4 %
     Extraction speed 34.8 X
     Track quality 100.0 %
     Copy CRC 0E624623
     Track not present in AccurateRip database
     Copy OK
None of the tracks are present in the AccurateRip database
No errors occurred
End of status report
Код:
Exact Audio Copy V1.3 from 2. September 2016
EAC extraction logfile from 4. August 2018, 17:31
Various / Driven By - Rock - CD3
Used drive  : HL-DT-STDVDRAM GSA-E40N   Adapter: 1  ID: 1
Read mode               : Secure
Utilize accurate stream : Yes
Defeat audio cache      : No
Make use of C2 pointers : Yes
Read offset correction                      : 667
Overread into Lead-In and Lead-Out          : No
Fill up missing offset samples with silence : Yes
Delete leading and trailing silent blocks   : No
Null samples used in CRC calculations       : Yes
Used interface                              : Native Win32 interface for Win NT & 2000
Gap handling                                : Not detected, thus appended to previous track
Used output format              : User Defined Encoder
Selected bitrate                : 896 kBit/s
Quality                         : High
Add ID3 tag                     : No
Command line compressor         : C:\Program Files (x86)\Exact Audio Copy\FLAC\FLAC.EXE
Additional command line options : -6 -V -T "ARTIST=%artist%" -T "TITLE=%title%" -T "ALBUM=%albumtitle%" -T "DATE=%year%" -T "TRACKNUMBER=%tracknr%" -T "GENRE=%genre%" -T "COMMENT=%comment%" -T "BAND=%albuminterpret%" -T "ALBUMARTIST=%albuminterpret%" -T "COMPOSER=%composer%" %haslyrics%--tag-from-file=LYRICS="%lyricsfile%"%haslyrics% -T "DISCNUMBER=%cdnumber%" -T "TOTALDISCS=%totalcds%" -T "TOTALTRACKS=%numtracks%" %hascover%--picture="%coverfile%"%hascover% %source% -o %dest%
TOC of the extracted CD
     Track |   Start  |  Length  | Start sector | End sector
    ---------------------------------------------------------
        1  |  0:00.00 |  4:42.40 |         0    |    21189
        2  |  4:42.40 |  2:35.18 |     21190    |    32832
        3  |  7:17.58 |  3:21.29 |     32833    |    47936
        4  | 10:39.12 |  2:25.17 |     47937    |    58828
        5  | 13:04.29 |  5:11.58 |     58829    |    82211
        6  | 18:16.12 |  3:48.73 |     82212    |    99384
        7  | 22:05.10 |  3:21.38 |     99385    |   114497
        8  | 25:26.48 |  3:55.62 |    114498    |   132184
        9  | 29:22.35 |  3:39.58 |    132185    |   148667
       10  | 33:02.18 |  4:05.67 |    148668    |   167109
       11  | 37:08.10 |  5:08.20 |    167110    |   190229
       12  | 42:16.30 |  3:50.26 |    190230    |   207505
       13  | 46:06.56 |  5:09.16 |    207506    |   230696
       14  | 51:15.72 |  3:38.04 |    230697    |   247050
       15  | 54:54.01 |  3:15.34 |    247051    |   261709
       16  | 58:09.35 |  3:14.32 |    261710    |   276291
       17  | 61:23.67 |  2:51.57 |    276292    |   289173
       18  | 64:15.49 |  2:18.00 |    289174    |   299523
       19  | 66:33.49 |  3:18.25 |    299524    |   314398
       20  | 69:51.74 |  3:54.34 |    314399    |   331982
Track  1
     Filename A:\PsPBuRnOuT's MUSIC\ROCK\DRIVEN BY - ROCK\DRIVEN BY - ROCK - CD3\01.Billy Idol - Scream.wav
     Peak level 78.5 %
     Extraction speed 7.5 X
     Track quality 99.3 %
     Copy CRC 1A89CB88
     Track not present in AccurateRip database
     Copy OK
Track  2
     Filename A:\PsPBuRnOuT's MUSIC\ROCK\DRIVEN BY - ROCK\DRIVEN BY - ROCK - CD3\02.Uriah Heep - Easy Livin'.wav
     Peak level 100.0 %
     Extraction speed 19.3 X
     Track quality 100.0 %
     Copy CRC 5ADA3A11
     Track not present in AccurateRip database
     Copy OK
Track  3
     Filename A:\PsPBuRnOuT's MUSIC\ROCK\DRIVEN BY - ROCK\DRIVEN BY - ROCK - CD3\03.Magnum - Just Like An Arrow.wav
     Peak level 93.3 %
     Extraction speed 18.3 X
     Track quality 99.8 %
     Copy CRC 2C40CE5F
     Track not present in AccurateRip database
     Copy OK
Track  4
     Filename A:\PsPBuRnOuT's MUSIC\ROCK\DRIVEN BY - ROCK\DRIVEN BY - ROCK - CD3\04.Therapy - Nowhere.wav
     Peak level 100.0 %
     Extraction speed 18.6 X
     Track quality 100.0 %
     Copy CRC B1559102
     Track not present in AccurateRip database
     Copy OK
Track  5
     Filename A:\PsPBuRnOuT's MUSIC\ROCK\DRIVEN BY - ROCK\DRIVEN BY - ROCK - CD3\05.Motorhead - Overkill.wav
     Peak level 94.1 %
     Extraction speed 24.3 X
     Track quality 100.0 %
     Copy CRC 5D0BEFE5
     Track not present in AccurateRip database
     Copy OK
Track  6
     Filename A:\PsPBuRnOuT's MUSIC\ROCK\DRIVEN BY - ROCK\DRIVEN BY - ROCK - CD3\06.Cinderella - Gypsy Road.wav
     Peak level 100.0 %
     Extraction speed 19.2 X
     Track quality 99.9 %
     Copy CRC 1E0957DD
     Track not present in AccurateRip database
     Copy OK
Track  7
     Filename A:\PsPBuRnOuT's MUSIC\ROCK\DRIVEN BY - ROCK\DRIVEN BY - ROCK - CD3\07.Angel Witch - Angel Witch.wav
     Peak level 97.7 %
     Extraction speed 25.1 X
     Track quality 100.0 %
     Copy CRC 0450594F
     Track not present in AccurateRip database
     Copy OK
Track  8
     Filename A:\PsPBuRnOuT's MUSIC\ROCK\DRIVEN BY - ROCK\DRIVEN BY - ROCK - CD3\08.Dokken - Breaking The Chains (Live).wav
     Peak level 94.4 %
     Extraction speed 23.5 X
     Track quality 99.9 %
     Copy CRC 94865332
     Track not present in AccurateRip database
     Copy OK
Track  9
     Filename A:\PsPBuRnOuT's MUSIC\ROCK\DRIVEN BY - ROCK\DRIVEN BY - ROCK - CD3\09.Celtic Frost - Into The Crypts Rays.wav
     Peak level 96.9 %
     Extraction speed 25.1 X
     Track quality 100.0 %
     Copy CRC BD27FADF
     Track not present in AccurateRip database
     Copy OK
Track 10
     Filename A:\PsPBuRnOuT's MUSIC\ROCK\DRIVEN BY - ROCK\DRIVEN BY - ROCK - CD3\10.Y&T - Mean Streak.wav
     Peak level 88.1 %
     Extraction speed 26.5 X
     Track quality 100.0 %
     Copy CRC 4EB3F818
     Track not present in AccurateRip database
     Copy OK
Track 11
     Filename A:\PsPBuRnOuT's MUSIC\ROCK\DRIVEN BY - ROCK\DRIVEN BY - ROCK - CD3\11.Gary Moore - Nuclear Attack.wav
     Peak level 98.9 %
     Extraction speed 31.0 X
     Track quality 100.0 %
     Copy CRC 2A09F82B
     Track not present in AccurateRip database
     Copy OK
Track 12
     Filename A:\PsPBuRnOuT's MUSIC\ROCK\DRIVEN BY - ROCK\DRIVEN BY - ROCK - CD3\12.The Call - Let The Day Begin.wav
     Peak level 88.1 %
     Extraction speed 28.3 X
     Track quality 100.0 %
     Copy CRC 2C0687E0
     Track not present in AccurateRip database
     Copy OK
Track 13
     Filename A:\PsPBuRnOuT's MUSIC\ROCK\DRIVEN BY - ROCK\DRIVEN BY - ROCK - CD3\13.The Damned - Eloise.wav
     Peak level 100.0 %
     Extraction speed 30.1 X
     Track quality 100.0 %
     Copy CRC B77D7BCF
     Track not present in AccurateRip database
     Copy OK
Track 14
     Filename A:\PsPBuRnOuT's MUSIC\ROCK\DRIVEN BY - ROCK\DRIVEN BY - ROCK - CD3\14.Thunder - Cosmetic Punk.wav
     Peak level 81.5 %
     Extraction speed 33.7 X
     Track quality 100.0 %
     Copy CRC 42DC83F0
     Track not present in AccurateRip database
     Copy OK
Track 15
     Filename A:\PsPBuRnOuT's MUSIC\ROCK\DRIVEN BY - ROCK\DRIVEN BY - ROCK - CD3\15.The Alarm - Sixty Eight Guns.wav
     Peak level 89.1 %
     Extraction speed 35.2 X
     Track quality 100.0 %
     Copy CRC 24470351
     Track not present in AccurateRip database
     Copy OK
Track 16
     Filename A:\PsPBuRnOuT's MUSIC\ROCK\DRIVEN BY - ROCK\DRIVEN BY - ROCK - CD3\16.The Pink Fairies - Between The Lines.wav
     Peak level 100.0 %
     Extraction speed 35.9 X
     Track quality 100.0 %
     Copy CRC 719F9058
     Track not present in AccurateRip database
     Copy OK
Track 17
     Filename A:\PsPBuRnOuT's MUSIC\ROCK\DRIVEN BY - ROCK\DRIVEN BY - ROCK - CD3\17.Wreckless Eric - Whole Wide World.wav
     Peak level 100.0 %
     Extraction speed 27.5 X
     Track quality 99.8 %
     Copy CRC 29A16395
     Track not present in AccurateRip database
     Copy OK
Track 18
     Filename A:\PsPBuRnOuT's MUSIC\ROCK\DRIVEN BY - ROCK\DRIVEN BY - ROCK - CD3\18.The Runaways - Cherry Bomb.wav
     Peak level 100.0 %
     Extraction speed 26.1 X
     Track quality 99.8 %
     Copy CRC 580DF0EE
     Track not present in AccurateRip database
     Copy OK
Track 19
     Filename A:\PsPBuRnOuT's MUSIC\ROCK\DRIVEN BY - ROCK\DRIVEN BY - ROCK - CD3\19.Larry Wallis - Police Car.wav
     Peak level 97.7 %
     Extraction speed 34.6 X
     Track quality 100.0 %
     Copy CRC 984FDF2B
     Track not present in AccurateRip database
     Copy OK
Track 20
     Filename A:\PsPBuRnOuT's MUSIC\ROCK\DRIVEN BY - ROCK\DRIVEN BY - ROCK - CD3\20.The Members - Solitary Confinement.wav
     Peak level 100.0 %
     Extraction speed 33.0 X
     Track quality 100.0 %
     Copy CRC 32A30EB7
     Track not present in AccurateRip database
     Copy OK
None of the tracks are present in the AccurateRip database
No errors occurred
End of status report
Код:
Exact Audio Copy V1.3 from 2. September 2016
EAC extraction logfile from 4. August 2018, 18:04
Various / Driven By - Rock - CD4
Used drive  : HL-DT-STDVDRAM GSA-E40N   Adapter: 1  ID: 1
Read mode               : Secure
Utilize accurate stream : Yes
Defeat audio cache      : No
Make use of C2 pointers : Yes
Read offset correction                      : 667
Overread into Lead-In and Lead-Out          : No
Fill up missing offset samples with silence : Yes
Delete leading and trailing silent blocks   : No
Null samples used in CRC calculations       : Yes
Used interface                              : Native Win32 interface for Win NT & 2000
Gap handling                                : Not detected, thus appended to previous track
Used output format              : User Defined Encoder
Selected bitrate                : 896 kBit/s
Quality                         : High
Add ID3 tag                     : No
Command line compressor         : C:\Program Files (x86)\Exact Audio Copy\FLAC\FLAC.EXE
Additional command line options : -6 -V -T "ARTIST=%artist%" -T "TITLE=%title%" -T "ALBUM=%albumtitle%" -T "DATE=%year%" -T "TRACKNUMBER=%tracknr%" -T "GENRE=%genre%" -T "COMMENT=%comment%" -T "BAND=%albuminterpret%" -T "ALBUMARTIST=%albuminterpret%" -T "COMPOSER=%composer%" %haslyrics%--tag-from-file=LYRICS="%lyricsfile%"%haslyrics% -T "DISCNUMBER=%cdnumber%" -T "TOTALDISCS=%totalcds%" -T "TOTALTRACKS=%numtracks%" %hascover%--picture="%coverfile%"%hascover% %source% -o %dest%
TOC of the extracted CD
     Track |   Start  |  Length  | Start sector | End sector
    ---------------------------------------------------------
        1  |  0:00.00 |  4:57.23 |         0    |    22297
        2  |  4:57.23 |  3:40.22 |     22298    |    38819
        3  |  8:37.45 |  2:36.49 |     38820    |    50568
        4  | 11:14.19 |  3:53.25 |     50569    |    68068
        5  | 15:07.44 |  3:39.56 |     68069    |    84549
        6  | 18:47.25 |  4:04.69 |     84550    |   102918
        7  | 22:52.19 |  5:02.67 |    102919    |   125635
        8  | 27:55.11 |  4:54.62 |    125636    |   147747
        9  | 32:49.73 |  3:38.19 |    147748    |   164116
       10  | 36:28.17 |  4:10.15 |    164117    |   182881
       11  | 40:38.32 |  3:30.65 |    182882    |   198696
       12  | 44:09.22 |  3:11.36 |    198697    |   213057
       13  | 47:20.58 |  3:20.66 |    213058    |   228123
       14  | 50:41.49 |  3:35.46 |    228124    |   244294
       15  | 54:17.20 |  3:55.61 |    244295    |   261980
       16  | 58:13.06 |  4:27.22 |    261981    |   282027
       17  | 62:40.28 |  2:58.54 |    282028    |   295431
       18  | 65:39.07 |  3:09.58 |    295432    |   309664
       19  | 68:48.65 |  3:37.72 |    309665    |   326011
       20  | 72:26.62 |  3:57.01 |    326012    |   343787
Track  1
     Filename A:\PsPBuRnOuT's MUSIC\ROCK\DRIVEN BY - ROCK\DRIVEN BY - ROCK - CD4\01.Stereophonics - Dakota.wav
     Peak level 98.7 %
     Extraction speed 10.0 X
     Track quality 99.9 %
     Copy CRC C351B9B5
     Track not present in AccurateRip database
     Copy OK
Track  2
     Filename A:\PsPBuRnOuT's MUSIC\ROCK\DRIVEN BY - ROCK\DRIVEN BY - ROCK - CD4\02.The Bravery - Honest Mistake.wav
     Peak level 94.3 %
     Extraction speed 12.2 X
     Track quality 100.0 %
     Copy CRC A19B928F
     Track not present in AccurateRip database
     Copy OK
Track  3
     Filename A:\PsPBuRnOuT's MUSIC\ROCK\DRIVEN BY - ROCK\DRIVEN BY - ROCK - CD4\03.Black Rebel Motorcycle Club - Ain't No Easy Way.wav
     Peak level 98.0 %
     Extraction speed 11.6 X
     Track quality 100.0 %
     Copy CRC 06132883
     Track not present in AccurateRip database
     Copy OK
Track  4
     Filename A:\PsPBuRnOuT's MUSIC\ROCK\DRIVEN BY - ROCK\DRIVEN BY - ROCK - CD4\04.Cher - If I Could Turn Back Time.wav
     Peak level 100.0 %
     Extraction speed 14.0 X
     Track quality 100.0 %
     Copy CRC 4AB38A74
     Track not present in AccurateRip database
     Copy OK
Track  5
     Filename A:\PsPBuRnOuT's MUSIC\ROCK\DRIVEN BY - ROCK\DRIVEN BY - ROCK - CD4\05.Engineers - Come In Out Of The Rain.wav
     Peak level 89.6 %
     Extraction speed 10.3 X
     Track quality 99.8 %
     Copy CRC DBCF2460
     Track not present in AccurateRip database
     Copy OK
Track  6
     Filename A:\PsPBuRnOuT's MUSIC\ROCK\DRIVEN BY - ROCK\DRIVEN BY - ROCK - CD4\06.T'Pau - China In Your Hand.wav
     Peak level 100.0 %
     Extraction speed 14.1 X
     Track quality 100.0 %
     Copy CRC 187A7F16
     Track not present in AccurateRip database
     Copy OK
Track  7
     Filename A:\PsPBuRnOuT's MUSIC\ROCK\DRIVEN BY - ROCK\DRIVEN BY - ROCK - CD4\07.Thunder - Something About You.wav
     Peak level 86.3 %
     Extraction speed 15.3 X
     Track quality 100.0 %
     Copy CRC 60ED4ACD
     Track not present in AccurateRip database
     Copy OK
Track  8
     Filename A:\PsPBuRnOuT's MUSIC\ROCK\DRIVEN BY - ROCK\DRIVEN BY - ROCK - CD4\08.Corrosion Of Conformity - Stare Too Long.wav
     Peak level 88.1 %
     Extraction speed 17.6 X
     Track quality 100.0 %
     Copy CRC 79F91EB2
     Track not present in AccurateRip database
     Copy OK
Track  9
     Filename A:\PsPBuRnOuT's MUSIC\ROCK\DRIVEN BY - ROCK\DRIVEN BY - ROCK - CD4\09.Phil Lynott - Kings Call.wav
     Peak level 100.0 %
     Extraction speed 15.2 X
     Track quality 99.9 %
     Copy CRC 1977CE23
     Track not present in AccurateRip database
     Copy OK
Track 10
     Filename A:\PsPBuRnOuT's MUSIC\ROCK\DRIVEN BY - ROCK\DRIVEN BY - ROCK - CD4\10.Roxy Music - More Than This.wav
     Peak level 100.0 %
     Extraction speed 18.3 X
     Track quality 100.0 %
     Copy CRC 91FC9F61
     Track not present in AccurateRip database
     Copy OK
Track 11
     Filename A:\PsPBuRnOuT's MUSIC\ROCK\DRIVEN BY - ROCK\DRIVEN BY - ROCK - CD4\11.Bonnie Tyler - It's A Heartache.wav
     Peak level 88.5 %
     Extraction speed 17.5 X
     Track quality 100.0 %
     Copy CRC 132C8ADD
     Track not present in AccurateRip database
     Copy OK
Track 12
     Filename A:\PsPBuRnOuT's MUSIC\ROCK\DRIVEN BY - ROCK\DRIVEN BY - ROCK - CD4\12.Robert Palmer - Bad Case Of Loving You (Doctor Doctor).wav
     Peak level 100.0 %
     Extraction speed 17.6 X
     Track quality 100.0 %
     Copy CRC 0E6CB1CE
     Track not present in AccurateRip database
     Copy OK
Track 13
     Filename A:\PsPBuRnOuT's MUSIC\ROCK\DRIVEN BY - ROCK\DRIVEN BY - ROCK - CD4\13.Rose Tattoo - Rock 'N' Roll Outlaw.wav
     Peak level 100.0 %
     Extraction speed 20.4 X
     Track quality 100.0 %
     Copy CRC DDB128A8
     Track not present in AccurateRip database
     Copy OK
Track 14
     Filename A:\PsPBuRnOuT's MUSIC\ROCK\DRIVEN BY - ROCK\DRIVEN BY - ROCK - CD4\14.Asia - Don't Cry.wav
     Peak level 100.0 %
     Extraction speed 18.8 X
     Track quality 100.0 %
     Copy CRC 4368F316
     Track not present in AccurateRip database
     Copy OK
Track 15
     Filename A:\PsPBuRnOuT's MUSIC\ROCK\DRIVEN BY - ROCK\DRIVEN BY - ROCK - CD4\15.Frankie Goes To Hollywood - Born To Run.wav
     Peak level 93.3 %
     Extraction speed 17.8 X
     Track quality 99.9 %
     Copy CRC 77E7B6EF
     Track not present in AccurateRip database
     Copy OK
Track 16
     Filename A:\PsPBuRnOuT's MUSIC\ROCK\DRIVEN BY - ROCK\DRIVEN BY - ROCK - CD4\16.Thin Lizzy - The Boys Are Back In Town.wav
     Peak level 96.4 %
     Extraction speed 19.8 X
     Track quality 100.0 %
     Copy CRC B5DA0B17
     Track not present in AccurateRip database
     Copy OK
Track 17
     Filename A:\PsPBuRnOuT's MUSIC\ROCK\DRIVEN BY - ROCK\DRIVEN BY - ROCK - CD4\17.Emerson, Lake & Palmer - Fanfare For The Common Man.wav
     Peak level 90.5 %
     Extraction speed 19.5 X
     Track quality 100.0 %
     Copy CRC 46968C6B
     Track not present in AccurateRip database
     Copy OK
Track 18
     Filename A:\PsPBuRnOuT's MUSIC\ROCK\DRIVEN BY - ROCK\DRIVEN BY - ROCK - CD4\18.Status Quo - Pictures Of Matchstick Man.wav
     Peak level 100.0 %
     Extraction speed 20.0 X
     Track quality 100.0 %
     Copy CRC E6BE2B95
     Track not present in AccurateRip database
     Copy OK
Track 19
     Filename A:\PsPBuRnOuT's MUSIC\ROCK\DRIVEN BY - ROCK\DRIVEN BY - ROCK - CD4\19.Billy Squire - The Stroke.wav
     Peak level 100.0 %
     Extraction speed 18.8 X
     Track quality 99.9 %
     Copy CRC A3231C14
     Track not present in AccurateRip database
     Copy OK
Track 20
     Filename A:\PsPBuRnOuT's MUSIC\ROCK\DRIVEN BY - ROCK\DRIVEN BY - ROCK - CD4\20.Bachman Turner Overdrive - Roll On Down The Highway.wav
     Peak level 100.0 %
     Extraction speed 21.4 X
     Track quality 100.0 %
     Copy CRC 7E96ECDD
     Track not present in AccurateRip database
     Copy OK
None of the tracks are present in the AccurateRip database
No errors occurred
End of status report
Код:
Exact Audio Copy V1.3 from 2. September 2016
EAC extraction logfile from 4. August 2018, 23:22
Various / Driven By - Rock - CD5
Used drive  : HL-DT-STDVDRAM GSA-E40N   Adapter: 1  ID: 1
Read mode               : Secure
Utilize accurate stream : Yes
Defeat audio cache      : No
Make use of C2 pointers : Yes
Read offset correction                      : 667
Overread into Lead-In and Lead-Out          : No
Fill up missing offset samples with silence : Yes
Delete leading and trailing silent blocks   : No
Null samples used in CRC calculations       : Yes
Used interface                              : Native Win32 interface for Win NT & 2000
Gap handling                                : Not detected, thus appended to previous track
Used output format              : User Defined Encoder
Selected bitrate                : 896 kBit/s
Quality                         : High
Add ID3 tag                     : No
Command line compressor         : C:\Program Files (x86)\Exact Audio Copy\FLAC\FLAC.EXE
Additional command line options : -6 -V -T "ARTIST=%artist%" -T "TITLE=%title%" -T "ALBUM=%albumtitle%" -T "DATE=%year%" -T "TRACKNUMBER=%tracknr%" -T "GENRE=%genre%" -T "COMMENT=%comment%" -T "BAND=%albuminterpret%" -T "ALBUMARTIST=%albuminterpret%" -T "COMPOSER=%composer%" %haslyrics%--tag-from-file=LYRICS="%lyricsfile%"%haslyrics% -T "DISCNUMBER=%cdnumber%" -T "TOTALDISCS=%totalcds%" -T "TOTALTRACKS=%numtracks%" %hascover%--picture="%coverfile%"%hascover% %source% -o %dest%
TOC of the extracted CD
     Track |   Start  |  Length  | Start sector | End sector
    ---------------------------------------------------------
        1  |  0:00.00 |  3:32.47 |         0    |    15946
        2  |  3:32.47 |  3:37.50 |     15947    |    32271
        3  |  7:10.22 |  2:30.25 |     32272    |    43546
        4  |  9:40.47 |  3:12.16 |     43547    |    57962
        5  | 12:52.63 |  4:04.35 |     57963    |    76297
        6  | 16:57.23 |  3:44.30 |     76298    |    93127
        7  | 20:41.53 |  2:22.12 |     93128    |   103789
        8  | 23:03.65 |  2:55.44 |    103790    |   116958
        9  | 25:59.34 |  2:51.07 |    116959    |   129790
       10  | 28:50.41 |  3:39.37 |    129791    |   146252
       11  | 32:30.03 |  4:56.43 |    146253    |   168495
       12  | 37:26.46 |  3:05.57 |    168496    |   182427
       13  | 40:32.28 |  3:48.38 |    182428    |   199565
       14  | 44:20.66 |  4:17.55 |    199566    |   218895
       15  | 48:38.46 |  3:02.33 |    218896    |   232578
       16  | 51:41.04 |  2:53.69 |    232579    |   245622
       17  | 54:34.73 |  3:04.17 |    245623    |   259439
       18  | 57:39.15 |  4:02.12 |    259440    |   277601
       19  | 61:41.27 |  3:41.58 |    277602    |   294234
       20  | 65:23.10 |  3:13.64 |    294235    |   308773
Track  1
     Filename A:\PsPBuRnOuT's MUSIC\ROCK\DRIVEN BY - ROCK\DRIVEN BY - ROCK - CD5\01.The Hives - Tick Tick Boom.wav
     Peak level 87.0 %
     Extraction speed 17.5 X
     Track quality 100.0 %
     Copy CRC 06536145
     Track not present in AccurateRip database
     Copy OK
Track  2
     Filename A:\PsPBuRnOuT's MUSIC\ROCK\DRIVEN BY - ROCK\DRIVEN BY - ROCK - CD5\02.George Thorogood & The Destroyers - Bad To The Bone.wav
     Peak level 99.1 %
     Extraction speed 18.9 X
     Track quality 100.0 %
     Copy CRC 67B58771
     Track not present in AccurateRip database
     Copy OK
Track  3
     Filename A:\PsPBuRnOuT's MUSIC\ROCK\DRIVEN BY - ROCK\DRIVEN BY - ROCK - CD5\03.The Stranglers - All Day And All Of The Night.wav
     Peak level 100.0 %
     Extraction speed 18.4 X
     Track quality 100.0 %
     Copy CRC 8E70DBEB
     Track not present in AccurateRip database
     Copy OK
Track  4
     Filename A:\PsPBuRnOuT's MUSIC\ROCK\DRIVEN BY - ROCK\DRIVEN BY - ROCK - CD5\04.The Sweet - Block Buster!.wav
     Peak level 96.1 %
     Extraction speed 22.5 X
     Track quality 100.0 %
     Copy CRC 5CA6FBD9
     Track not present in AccurateRip database
     Copy OK
Track  5
     Filename A:\PsPBuRnOuT's MUSIC\ROCK\DRIVEN BY - ROCK\DRIVEN BY - ROCK - CD5\05.Mungo Jerry - Baby Jump.wav
     Peak level 98.8 %
     Extraction speed 20.8 X
     Track quality 100.0 %
     Copy CRC DD8FA15A
     Track not present in AccurateRip database
     Copy OK
Track  6
     Filename A:\PsPBuRnOuT's MUSIC\ROCK\DRIVEN BY - ROCK\DRIVEN BY - ROCK - CD5\06.Sham 69 - If The Kids Are United.wav
     Peak level 97.7 %
     Extraction speed 25.4 X
     Track quality 100.0 %
     Copy CRC 06A41613
     Track not present in AccurateRip database
     Copy OK
Track  7
     Filename A:\PsPBuRnOuT's MUSIC\ROCK\DRIVEN BY - ROCK\DRIVEN BY - ROCK - CD5\07.Toy Dolls - No Particular Place To Go.wav
     Peak level 100.0 %
     Extraction speed 26.4 X
     Track quality 100.0 %
     Copy CRC E1F6EFBC
     Track not present in AccurateRip database
     Copy OK
Track  8
     Filename A:\PsPBuRnOuT's MUSIC\ROCK\DRIVEN BY - ROCK\DRIVEN BY - ROCK - CD5\08.Tenpole Tudor - Swords Of A Thousand Men.wav
     Peak level 100.0 %
     Extraction speed 22.3 X
     Track quality 99.8 %
     Copy CRC D631649B
     Track not present in AccurateRip database
     Copy OK
Track  9
     Filename A:\PsPBuRnOuT's MUSIC\ROCK\DRIVEN BY - ROCK\DRIVEN BY - ROCK - CD5\09.Girlschool - Race With The Devil.wav
     Peak level 96.5 %
     Extraction speed 22.8 X
     Track quality 100.0 %
     Copy CRC C1080FFE
     Track not present in AccurateRip database
     Copy OK
Track 10
     Filename A:\PsPBuRnOuT's MUSIC\ROCK\DRIVEN BY - ROCK\DRIVEN BY - ROCK - CD5\10.Samson - Ridin' With Angels.wav
     Peak level 100.0 %
     Extraction speed 24.6 X
     Track quality 100.0 %
     Copy CRC DC54EFF3
     Track not present in AccurateRip database
     Copy OK
Track 11
     Filename A:\PsPBuRnOuT's MUSIC\ROCK\DRIVEN BY - ROCK\DRIVEN BY - ROCK - CD5\11.Rush - Spirit Of Radio.wav
     Peak level 100.0 %
     Extraction speed 24.7 X
     Track quality 100.0 %
     Copy CRC 43B0AB16
     Track not present in AccurateRip database
     Copy OK
Track 12
     Filename A:\PsPBuRnOuT's MUSIC\ROCK\DRIVEN BY - ROCK\DRIVEN BY - ROCK - CD5\12.Hanoi Rocks - Oriental Beat.wav
     Peak level 100.0 %
     Extraction speed 23.6 X
     Track quality 99.8 %
     Copy CRC 6B9819C0
     Track not present in AccurateRip database
     Copy OK
Track 13
     Filename A:\PsPBuRnOuT's MUSIC\ROCK\DRIVEN BY - ROCK\DRIVEN BY - ROCK - CD5\13.Gary Moore - Really Gonna Rock Tonight.wav
     Peak level 89.1 %
     Extraction speed 25.8 X
     Track quality 99.9 %
     Copy CRC 1E958CD1
     Track not present in AccurateRip database
     Copy OK
Track 14
     Filename A:\PsPBuRnOuT's MUSIC\ROCK\DRIVEN BY - ROCK\DRIVEN BY - ROCK - CD5\14.Magnum - The Spirit.wav
     Peak level 98.8 %
     Extraction speed 28.4 X
     Track quality 100.0 %
     Copy CRC 3B93B3FF
     Track not present in AccurateRip database
     Copy OK
Track 15
     Filename A:\PsPBuRnOuT's MUSIC\ROCK\DRIVEN BY - ROCK\DRIVEN BY - ROCK - CD5\15.Venom - To Hell And Back.wav
     Peak level 100.0 %
     Extraction speed 28.1 X
     Track quality 100.0 %
     Copy CRC C6B60816
     Track not present in AccurateRip database
     Copy OK
Track 16
     Filename A:\PsPBuRnOuT's MUSIC\ROCK\DRIVEN BY - ROCK\DRIVEN BY - ROCK - CD5\16.Gene Simmons - Radioactive.wav
     Peak level 95.4 %
     Extraction speed 28.7 X
     Track quality 100.0 %
     Copy CRC 0CBFF545
     Track not present in AccurateRip database
     Copy OK
Track 17
     Filename A:\PsPBuRnOuT's MUSIC\ROCK\DRIVEN BY - ROCK\DRIVEN BY - ROCK - CD5\17.New York Dolls - Bad Girl.wav
     Peak level 100.0 %
     Extraction speed 35.9 X
     Track quality 100.0 %
     Copy CRC D94C983C
     Track not present in AccurateRip database
     Copy OK
Track 18
     Filename A:\PsPBuRnOuT's MUSIC\ROCK\DRIVEN BY - ROCK\DRIVEN BY - ROCK - CD5\18.Be Bop Deluxe - Ships In The Night.wav
     Peak level 100.0 %
     Extraction speed 30.7 X
     Track quality 100.0 %
     Copy CRC 47A6FDC4
     Track not present in AccurateRip database
     Copy OK
Track 19
     Filename A:\PsPBuRnOuT's MUSIC\ROCK\DRIVEN BY - ROCK\DRIVEN BY - ROCK - CD5\19.Gun - Better Days.wav
     Peak level 100.0 %
     Extraction speed 29.1 X
     Track quality 99.9 %
     Copy CRC 90A5C66B
     Track not present in AccurateRip database
     Copy OK
Track 20
     Filename A:\PsPBuRnOuT's MUSIC\ROCK\DRIVEN BY - ROCK\DRIVEN BY - ROCK - CD5\20.Atomic Rooster - Tomorrow Night.wav
     Peak level 100.0 %
     Extraction speed 36.3 X
     Track quality 100.0 %
     Copy CRC 0A3AF79E
     Track not present in AccurateRip database
     Copy OK
None of the tracks are present in the AccurateRip database
No errors occurred
End of status report
Код:
REM GENRE Rock
REM DATE 2018
REM DISCID 2B109D14
REM DISCNUMBER 01
REM TOTALDISCS 05
REM COMMENT "Exact Audio Copy V1.3"
PERFORMER "Various"
TITLE "Driven By - Rock - CD1"
FILE "01.Papa Roach - Last Resort.flac" WAVE
  TRACK 01 AUDIO
    PERFORMER "Papa Roach"
    TITLE "Last Resort"
    INDEX 01 00:00:00
FILE "02.Fall Out Boy - Centuries.flac" WAVE
  TRACK 02 AUDIO
    PERFORMER "Fall Out Boy"
    TITLE "Centuries"
    INDEX 01 00:00:00
FILE "03.Queens Of The Stone Age - No One Knows.flac" WAVE
  TRACK 03 AUDIO
    PERFORMER "Queens Of The Stone Age"
    TITLE "No One Knows"
    INDEX 01 00:00:00
FILE "04.The Hives - Walk Idiot Walk.flac" WAVE
  TRACK 04 AUDIO
    PERFORMER "The Hives"
    TITLE "Walk Idiot Walk"
    INDEX 01 00:00:00
FILE "05.Hole - Celebrity Skin.flac" WAVE
  TRACK 05 AUDIO
    PERFORMER "Hole"
    TITLE "Celebrity Skin"
    INDEX 01 00:00:00
FILE "06.The Gossip - Standing In The Way Of Control.flac" WAVE
  TRACK 06 AUDIO
    PERFORMER "The Gossip"
    TITLE "Standing In The Way Of Control"
    INDEX 01 00:00:00
FILE "07.3 Doors Down - In The Dark.flac" WAVE
  TRACK 07 AUDIO
    PERFORMER "3 Doors Down"
    TITLE "In The Dark"
    INDEX 01 00:00:00
FILE "08.Blink-182 - All The Small Things.flac" WAVE
  TRACK 08 AUDIO
    PERFORMER "Blink-182"
    TITLE "All The Small Things"
    INDEX 01 00:00:00
FILE "09.The Cooper Temple Clause - Promises Promises.flac" WAVE
  TRACK 09 AUDIO
    PERFORMER "The Cooper Temple Clause"
    TITLE "Promises Promises"
    INDEX 01 00:00:00
FILE "10.Anthrax - Got The Time.flac" WAVE
  TRACK 10 AUDIO
    PERFORMER "Anthrax"
    TITLE "Got The Time"
    INDEX 01 00:00:00
FILE "11.Marilyn Manson - Beautiful People.flac" WAVE
  TRACK 11 AUDIO
    PERFORMER "Marilyn Manson"
    TITLE "Beautiful People"
    INDEX 01 00:00:00
FILE "12.Megadeth - Symphony Of Destruction.flac" WAVE
  TRACK 12 AUDIO
    PERFORMER "Megadeth"
    TITLE "Symphony Of Destruction"
    INDEX 01 00:00:00
FILE "13.Motorhead - Bomber.flac" WAVE
  TRACK 13 AUDIO
    PERFORMER "Motorhead"
    TITLE "Bomber"
    INDEX 01 00:00:00
FILE "14.Lenny Kravitz - Fly Away.flac" WAVE
  TRACK 14 AUDIO
    PERFORMER "Lenny Kravitz"
    TITLE "Fly Away"
    INDEX 01 00:00:00
FILE "15.Nazareth - My White Bicycle.flac" WAVE
  TRACK 15 AUDIO
    PERFORMER "Nazareth"
    TITLE "My White Bicycle"
    INDEX 01 00:00:00
FILE "16.Ugly Kid Joe - Everything About You.flac" WAVE
  TRACK 16 AUDIO
    PERFORMER "Ugly Kid Joe"
    TITLE "Everything About You"
    INDEX 01 00:00:00
FILE "17.Super Furry Animals - Golden Retriever.flac" WAVE
  TRACK 17 AUDIO
    PERFORMER "Super Furry Animals"
    TITLE "Golden Retriever"
    INDEX 01 00:00:00
FILE "18.The Fratellis - Shotgun Shoes.flac" WAVE
  TRACK 18 AUDIO
    PERFORMER "The Fratellis"
    TITLE "Shotgun Shoes"
    INDEX 01 00:00:00
FILE "19.Sonic Youth - Bull In The Heather.flac" WAVE
  TRACK 19 AUDIO
    PERFORMER "Sonic Youth"
    TITLE "Bull In The Heather"
    INDEX 01 00:00:00
FILE "20.Kubb - Wicked Soul.flac" WAVE
  TRACK 20 AUDIO
    PERFORMER "Kubb"
    TITLE "Wicked Soul"
    INDEX 01 00:00:00
Код:
REM GENRE Rock
REM DATE 2018
REM DISCID 2711FC14
REM DISCNUMBER 02
REM TOTALDISCS 05
REM COMMENT "Exact Audio Copy V1.3"
PERFORMER "Various"
TITLE "Driven By - Rock - CD2"
FILE "01.Blondie - One Way Or Another.flac" WAVE
  TRACK 01 AUDIO
    PERFORMER "Blondie"
    TITLE "One Way Or Another"
    INDEX 01 00:00:00
FILE "02.The Knack - My Sharona.flac" WAVE
  TRACK 02 AUDIO
    PERFORMER "The Knack"
    TITLE "My Sharona"
    INDEX 01 00:00:00
FILE "03.Status Quo - Rocking All Over The World.flac" WAVE
  TRACK 03 AUDIO
    PERFORMER "Status Quo"
    TITLE "Rocking All Over The World"
    INDEX 01 00:00:00
FILE "04.Thin Lizzy - Don't Believe A Word.flac" WAVE
  TRACK 04 AUDIO
    PERFORMER "Thin Lizzy"
    TITLE "Don't Believe A Word"
    INDEX 01 00:00:00
FILE "05.The Sweet - The Ballroom Blitz.flac" WAVE
  TRACK 05 AUDIO
    PERFORMER "The Sweet"
    TITLE "The Ballroom Blitz"
    INDEX 01 00:00:00
FILE "06.Kiss - Crazy Crazy Nights.flac" WAVE
  TRACK 06 AUDIO
    PERFORMER "Kiss"
    TITLE "Crazy Crazy Nights"
    INDEX 01 00:00:00
FILE "07.Little Angels - Ten Miles High.flac" WAVE
  TRACK 07 AUDIO
    PERFORMER "Little Angels"
    TITLE "Ten Miles High"
    INDEX 01 00:00:00
FILE "08.Nazareth - Hair Of The Dog.flac" WAVE
  TRACK 08 AUDIO
    PERFORMER "Nazareth"
    TITLE "Hair Of The Dog"
    INDEX 01 00:00:00
FILE "09.Joe Walsh - Rocky Mountain Way.flac" WAVE
  TRACK 09 AUDIO
    PERFORMER "Joe Walsh"
    TITLE "Rocky Mountain Way"
    INDEX 01 00:00:00
FILE "10.Lynyrd Skynyrd - Sweet Home Alabama.flac" WAVE
  TRACK 10 AUDIO
    PERFORMER "Lynyrd Skynyrd"
    TITLE "Sweet Home Alabama"
    INDEX 01 00:00:00
FILE "11.Bachman Turner Overdrive - You Ain't Seen Nothing Yet.flac" WAVE
  TRACK 11 AUDIO
    PERFORMER "Bachman Turner Overdrive"
    TITLE "You Ain't Seen Nothing Yet"
    INDEX 01 00:00:00
FILE "12.Free - Alright Now.flac" WAVE
  TRACK 12 AUDIO
    PERFORMER "Free"
    TITLE "Alright Now"
    INDEX 01 00:00:00
FILE "13.The Troggs - Wild Thing.flac" WAVE
  TRACK 13 AUDIO
    PERFORMER "The Troggs"
    TITLE "Wild Thing"
    INDEX 01 00:00:00
FILE "14.The Velvet Underground - I'm Waiting For The Man.flac" WAVE
  TRACK 14 AUDIO
    PERFORMER "The Velvet Underground"
    TITLE "I'm Waiting For The Man"
    INDEX 01 00:00:00
FILE "15.Squeeze - Tempted.flac" WAVE
  TRACK 15 AUDIO
    PERFORMER "Squeeze"
    TITLE "Tempted"
    INDEX 01 00:00:00
FILE "16.Monster Magnet - Space Lord.flac" WAVE
  TRACK 16 AUDIO
    PERFORMER "Monster Magnet"
    TITLE "Space Lord"
    INDEX 01 00:00:00
FILE "17.Simple Minds - Don't You Forget About Me.flac" WAVE
  TRACK 17 AUDIO
    PERFORMER "Simple Minds"
    TITLE "Don't You Forget About Me"
    INDEX 01 00:00:00
FILE "18.1927 - That's When I Think Of You.flac" WAVE
  TRACK 18 AUDIO
    PERFORMER "1927"
    TITLE "That's When I Think Of You"
    INDEX 01 00:00:00
FILE "19.The Silencers - Painted Moon.flac" WAVE
  TRACK 19 AUDIO
    PERFORMER "The Silencers"
    TITLE "Painted Moon"
    INDEX 01 00:00:00
FILE "20.The Allman Brothers - Jessica.flac" WAVE
  TRACK 20 AUDIO
    PERFORMER "The Allman Brothers"
    TITLE "Jessica"
    INDEX 01 00:00:00
Код:
REM GENRE Rock
REM DATE 2018
REM DISCID 56114A14
REM DISCNUMBER 03
REM TOTALDISCS 05
REM COMMENT "Exact Audio Copy V1.3"
PERFORMER "Various"
TITLE "Driven By - Rock - CD3"
FILE "01.Billy Idol - Scream.flac" WAVE
  TRACK 01 AUDIO
    PERFORMER "Billy Idol"
    TITLE "Scream"
    INDEX 01 00:00:00
FILE "02.Uriah Heep - Easy Livin'.flac" WAVE
  TRACK 02 AUDIO
    PERFORMER "Uriah Heep"
    TITLE "Easy Livin'"
    INDEX 01 00:00:00
FILE "03.Magnum - Just Like An Arrow.flac" WAVE
  TRACK 03 AUDIO
    PERFORMER "Magnum"
    TITLE "Just Like An Arrow"
    INDEX 01 00:00:00
FILE "04.Therapy - Nowhere.flac" WAVE
  TRACK 04 AUDIO
    PERFORMER "Therapy?"
    TITLE "Nowhere"
    INDEX 01 00:00:00
FILE "05.Motorhead - Overkill.flac" WAVE
  TRACK 05 AUDIO
    PERFORMER "Motorhead"
    TITLE "Overkill"
    INDEX 01 00:00:00
FILE "06.Cinderella - Gypsy Road.flac" WAVE
  TRACK 06 AUDIO
    PERFORMER "Cinderella"
    TITLE "Gypsy Road"
    INDEX 01 00:00:00
FILE "07.Angel Witch - Angel Witch.flac" WAVE
  TRACK 07 AUDIO
    PERFORMER "Angel Witch"
    TITLE "Angel Witch"
    INDEX 01 00:00:00
FILE "08.Dokken - Breaking The Chains (Live).flac" WAVE
  TRACK 08 AUDIO
    PERFORMER "Dokken"
    TITLE "Breaking The Chains (Live)"
    INDEX 01 00:00:00
FILE "09.Celtic Frost - Into The Crypts Rays.flac" WAVE
  TRACK 09 AUDIO
    PERFORMER "Celtic Frost"
    TITLE "Into The Crypts Rays"
    INDEX 01 00:00:00
FILE "10.Y&T - Mean Streak.flac" WAVE
  TRACK 10 AUDIO
    PERFORMER "Y&T"
    TITLE "Mean Streak"
    INDEX 01 00:00:00
FILE "11.Gary Moore - Nuclear Attack.flac" WAVE
  TRACK 11 AUDIO
    PERFORMER "Gary Moore"
    TITLE "Nuclear Attack"
    INDEX 01 00:00:00
FILE "12.The Call - Let The Day Begin.flac" WAVE
  TRACK 12 AUDIO
    PERFORMER "The Call"
    TITLE "Let The Day Begin"
    INDEX 01 00:00:00
FILE "13.The Damned - Eloise.flac" WAVE
  TRACK 13 AUDIO
    PERFORMER "The Damned"
    TITLE "Eloise"
    INDEX 01 00:00:00
FILE "14.Thunder - Cosmetic Punk.flac" WAVE
  TRACK 14 AUDIO
    PERFORMER "Thunder"
    TITLE "Cosmetic Punk"
    INDEX 01 00:00:00
FILE "15.The Alarm - Sixty Eight Guns.flac" WAVE
  TRACK 15 AUDIO
    PERFORMER "The Alarm"
    TITLE "Sixty Eight Guns"
    INDEX 01 00:00:00
FILE "16.The Pink Fairies - Between The Lines.flac" WAVE
  TRACK 16 AUDIO
    PERFORMER "The Pink Fairies"
    TITLE "Between The Lines"
    INDEX 01 00:00:00
FILE "17.Wreckless Eric - Whole Wide World.flac" WAVE
  TRACK 17 AUDIO
    PERFORMER "Wreckless Eric"
    TITLE "Whole Wide World"
    INDEX 01 00:00:00
FILE "18.The Runaways - Cherry Bomb.flac" WAVE
  TRACK 18 AUDIO
    PERFORMER "The Runaways"
    TITLE "Cherry Bomb"
    INDEX 01 00:00:00
FILE "19.Larry Wallis - Police Car.flac" WAVE
  TRACK 19 AUDIO
    PERFORMER "Larry Wallis"
    TITLE "Police Car"
    INDEX 01 00:00:00
FILE "20.The Members - Solitary Confinement.flac" WAVE
  TRACK 20 AUDIO
    PERFORMER "The Members"
    TITLE "Solitary Confinement"
    INDEX 01 00:00:00
Код:
REM GENRE Rock
REM DATE 2018
REM DISCID 3211E714
REM DISCNUMBER 04
REM TOTALDISCS 05
REM COMMENT "Exact Audio Copy V1.3"
PERFORMER "Various"
TITLE "Driven By - Rock - CD4"
FILE "01.Stereophonics - Dakota.flac" WAVE
  TRACK 01 AUDIO
    PERFORMER "Stereophonics"
    TITLE "Dakota"
    INDEX 01 00:00:00
FILE "02.The Bravery - Honest Mistake.flac" WAVE
  TRACK 02 AUDIO
    PERFORMER "The Bravery"
    TITLE "Honest Mistake"
    INDEX 01 00:00:00
FILE "03.Black Rebel Motorcycle Club - Ain't No Easy Way.flac" WAVE
  TRACK 03 AUDIO
    PERFORMER "Black Rebel Motorcycle Club"
    TITLE "Ain't No Easy Way"
    INDEX 01 00:00:00
FILE "04.Cher - If I Could Turn Back Time.flac" WAVE
  TRACK 04 AUDIO
    PERFORMER "Cher"
    TITLE "If I Could Turn Back Time"
    INDEX 01 00:00:00
FILE "05.Engineers - Come In Out Of The Rain.flac" WAVE
  TRACK 05 AUDIO
    PERFORMER "Engineers"
    TITLE "Come In Out Of The Rain"
    INDEX 01 00:00:00
FILE "06.T'Pau - China In Your Hand.flac" WAVE
  TRACK 06 AUDIO
    PERFORMER "T'Pau"
    TITLE "China In Your Hand"
    INDEX 01 00:00:00
FILE "07.Thunder - Something About You.flac" WAVE
  TRACK 07 AUDIO
    PERFORMER "Thunder"
    TITLE "Something About You"
    INDEX 01 00:00:00
FILE "08.Corrosion Of Conformity - Stare Too Long.flac" WAVE
  TRACK 08 AUDIO
    PERFORMER "Corrosion Of Conformity"
    TITLE "Stare Too Long"
    INDEX 01 00:00:00
FILE "09.Phil Lynott - Kings Call.flac" WAVE
  TRACK 09 AUDIO
    PERFORMER "Phil Lynott"
    TITLE "Kings Call"
    INDEX 01 00:00:00
FILE "10.Roxy Music - More Than This.flac" WAVE
  TRACK 10 AUDIO
    PERFORMER "Roxy Music"
    TITLE "More Than This"
    INDEX 01 00:00:00
FILE "11.Bonnie Tyler - It's A Heartache.flac" WAVE
  TRACK 11 AUDIO
    PERFORMER "Bonnie Tyler"
    TITLE "It's A Heartache"
    INDEX 01 00:00:00
FILE "12.Robert Palmer - Bad Case Of Loving You (Doctor Doctor).flac" WAVE
  TRACK 12 AUDIO
    PERFORMER "Robert Palmer"
    TITLE "Bad Case Of Loving You (Doctor Doctor)"
    INDEX 01 00:00:00
FILE "13.Rose Tattoo - Rock 'N' Roll Outlaw.flac" WAVE
  TRACK 13 AUDIO
    PERFORMER "Rose Tattoo"
    TITLE "Rock 'N' Roll Outlaw"
    INDEX 01 00:00:00
FILE "14.Asia - Don't Cry.flac" WAVE
  TRACK 14 AUDIO
    PERFORMER "Asia"
    TITLE "Don't Cry"
    INDEX 01 00:00:00
FILE "15.Frankie Goes To Hollywood - Born To Run.flac" WAVE
  TRACK 15 AUDIO
    PERFORMER "Frankie Goes To Hollywood"
    TITLE "Born To Run"
    INDEX 01 00:00:00
FILE "16.Thin Lizzy - The Boys Are Back In Town.flac" WAVE
  TRACK 16 AUDIO
    PERFORMER "Thin Lizzy"
    TITLE "The Boys Are Back In Town"
    INDEX 01 00:00:00
FILE "17.Emerson, Lake & Palmer - Fanfare For The Common Man.flac" WAVE
  TRACK 17 AUDIO
    PERFORMER "Emerson, Lake & Palmer"
    TITLE "Fanfare For The Common Man"
    INDEX 01 00:00:00
FILE "18.Status Quo - Pictures Of Matchstick Man.flac" WAVE
  TRACK 18 AUDIO
    PERFORMER "Status Quo"
    TITLE "Pictures Of Matchstick Man"
    INDEX 01 00:00:00
FILE "19.Billy Squire - The Stroke.flac" WAVE
  TRACK 19 AUDIO
    PERFORMER "Billy Squire"
    TITLE "The Stroke"
    INDEX 01 00:00:00
FILE "20.Bachman Turner Overdrive - Roll On Down The Highway.flac" WAVE
  TRACK 20 AUDIO
    PERFORMER "Bachman Turner Overdrive"
    TITLE "Roll On Down The Highway"
    INDEX 01 00:00:00
Код:
REM GENRE Rock
REM DATE 2018
REM DISCID 06101414
REM DISCNUMBER 05
REM TOTALDISCS 05
REM COMMENT "Exact Audio Copy V1.3"
PERFORMER "Various"
TITLE "Driven By - Rock - CD5"
FILE "01.The Hives - Tick Tick Boom.flac" WAVE
  TRACK 01 AUDIO
    PERFORMER "The Hives"
    TITLE "Tick Tick Boom"
    INDEX 01 00:00:00
FILE "02.George Thorogood & The Destroyers - Bad To The Bone.flac" WAVE
  TRACK 02 AUDIO
    PERFORMER "George Thorogood & The Destroyers"
    TITLE "Bad To The Bone"
    INDEX 01 00:00:00
FILE "03.The Stranglers - All Day And All Of The Night.flac" WAVE
  TRACK 03 AUDIO
    PERFORMER "The Stranglers"
    TITLE "All Day And All Of The Night"
    INDEX 01 00:00:00
FILE "04.The Sweet - Block Buster!.flac" WAVE
  TRACK 04 AUDIO
    PERFORMER "The Sweet"
    TITLE "Block Buster!"
    INDEX 01 00:00:00
FILE "05.Mungo Jerry - Baby Jump.flac" WAVE
  TRACK 05 AUDIO
    PERFORMER "Mungo Jerry"
    TITLE "Baby Jump"
    INDEX 01 00:00:00
FILE "06.Sham 69 - If The Kids Are United.flac" WAVE
  TRACK 06 AUDIO
    PERFORMER "Sham 69"
    TITLE "If The Kids Are United"
    INDEX 01 00:00:00
FILE "07.Toy Dolls - No Particular Place To Go.flac" WAVE
  TRACK 07 AUDIO
    PERFORMER "Toy Dolls"
    TITLE "No Particular Place To Go"
    INDEX 01 00:00:00
FILE "08.Tenpole Tudor - Swords Of A Thousand Men.flac" WAVE
  TRACK 08 AUDIO
    PERFORMER "Tenpole Tudor"
    TITLE "Swords Of A Thousand Men"
    INDEX 01 00:00:00
FILE "09.Girlschool - Race With The Devil.flac" WAVE
  TRACK 09 AUDIO
    PERFORMER "Girlschool"
    TITLE "Race With The Devil"
    INDEX 01 00:00:00
FILE "10.Samson - Ridin' With Angels.flac" WAVE
  TRACK 10 AUDIO
    PERFORMER "Samson"
    TITLE "Ridin' With Angels"
    INDEX 01 00:00:00
FILE "11.Rush - Spirit Of Radio.flac" WAVE
  TRACK 11 AUDIO
    PERFORMER "Rush"
    TITLE "Spirit Of Radio"
    INDEX 01 00:00:00
FILE "12.Hanoi Rocks - Oriental Beat.flac" WAVE
  TRACK 12 AUDIO
    PERFORMER "Hanoi Rocks"
    TITLE "Oriental Beat"
    INDEX 01 00:00:00
FILE "13.Gary Moore - Really Gonna Rock Tonight.flac" WAVE
  TRACK 13 AUDIO
    PERFORMER "Gary Moore"
    TITLE "Really Gonna Rock Tonight"
    INDEX 01 00:00:00
FILE "14.Magnum - The Spirit.flac" WAVE
  TRACK 14 AUDIO
    PERFORMER "Magnum"
    TITLE "The Spirit"
    INDEX 01 00:00:00
FILE "15.Venom - To Hell And Back.flac" WAVE
  TRACK 15 AUDIO
    PERFORMER "Venom"
    TITLE "To Hell And Back"
    INDEX 01 00:00:00
FILE "16.Gene Simmons - Radioactive.flac" WAVE
  TRACK 16 AUDIO
    PERFORMER "Gene Simmons"
    TITLE "Radioactive"
    INDEX 01 00:00:00
FILE "17.New York Dolls - Bad Girl.flac" WAVE
  TRACK 17 AUDIO
    PERFORMER "New York Dolls"
    TITLE "Bad Girl"
    INDEX 01 00:00:00
FILE "18.Be Bop Deluxe - Ships In The Night.flac" WAVE
  TRACK 18 AUDIO
    PERFORMER "Be Bop Deluxe"
    TITLE "Ships In The Night"
    INDEX 01 00:00:00
FILE "19.Gun - Better Days.flac" WAVE
  TRACK 19 AUDIO
    PERFORMER "Gun"
    TITLE "Better Days"
    INDEX 01 00:00:00
FILE "20.Atomic Rooster - Tomorrow Night.flac" WAVE
  TRACK 20 AUDIO
    PERFORMER "Atomic Rooster"
    TITLE "Tomorrow Night"
    INDEX 01 00:00:00
--
Download / Скачать

Хотите скачать бесплатно? Зарегистрируйтесь на сайте (ссылка на регистрацию). Pirat.ca - самый быстрый торрент трекер в рунете!

Как скачивать  ·   Что такое торрент  ·   Рейтинг и ограничения

Показать сообщения:    
Ответить на тему

Текущее время: Сегодня 21:23

Часовой пояс: GMT + 4



Вы не можете начинать темы
Вы не можете отвечать на сообщения
Вы не можете редактировать свои сообщения
Вы не можете удалять свои сообщения
Вы не можете голосовать в опросах
Вы не можете прикреплять файлы к сообщениям
Вы не можете скачивать файлы

Майнать ▼