(Hard & Heavy) Crystal Ball - Crystallizer (Limited Edition) - 2018 [FLAC, image +.cue, lossless]

Ответить на тему
 
Автор
Сообщение

Пост 05-Сен-2018 12:31

[Q] 

sergej644

-Crystal Ball - Crystallizer (Limited Edition)--
Год издания: 2018
Страна: Switzerland
Жанр: Hard & Heavy
Продолжительность: 00:51:20-Лейбл издания: Massacre Records
Страна-выпуска диска: Germany
Номер по каталогу: MASDP1009-Формат: FLAC
Битрейт аудио: Lossless
Тип рипа: image +.cue
Наличие сканов в содержимом раздачи: да
-

01. Crystallizer (3:56)
02. Curtain Call (3:33)
03. Alive For Evermore (3:47)
04. S.O.S. (3:58)
05. Crazy In The Night (3:08)
06. Gentleman's Agreement (4:17)
07. Let Her Go (3:01)
08. The Beauty In The Beast (4:03)
09. Death On Holy Ground (4:34)
10. Satisfaction Guaranteed (4:05)
11. Exit Wound (4:38)
12. Dusty Deadly (3:18)
13. Symphony Of Life (5:02)
-
Код:
Exact Audio Copy V1.3 from 2. September 2016
Отчёт EAC об извлечении, выполненном 16. мая 2018, 18:20
Crystal Ball / Crystallizer
Дисковод: HL-DT-STDVDRAM GU40N   Adapter: 1  ID: 0
Режим чтения                 : Достоверность
Использование точного потока : Да
Отключение кэша аудио        : Да
Использование указателей C2  : Нет
Коррекция смещения при чтении                     : 103
Способность читать области Lead-in и Lead-out     : Нет
Заполнение пропущенных сэмплов тишиной            : Да
Удаление блоков с тишиной в начале и конце        : Нет
При вычислениях CRC использовались нулевые сэмплы : Да
Интерфейс                                         : Встроенный Win32-интерфейс для Win NT/2000
Выходной формат          : Пользовательский кодировщик
Выбранный битрейт        : 1024 kBit/s
Качество                 : Высокий
Добавление ID3-тега      : Нет
Утилита сжатия           : C:\Program Files (x86)\Exact Audio Copy\Flac\flac.exe
Дополнительные параметры :  -V -8 -T "Date=%year%" -T "Genre=%genre%" %source%
TOC извлечённого CD
     Трек |   Старт  | Длительность | Начальный сектор | Конечный сектор
    ---------------------------------------------------------------------
       1  |  0:00.00 |    3:56.22   |           0      |      17721
       2  |  3:56.22 |    3:33.12   |       17722      |      33708
       3  |  7:29.34 |    3:47.17   |       33709      |      50750
       4  | 11:16.51 |    3:58.26   |       50751      |      68626
       5  | 15:15.02 |    3:07.69   |       68627      |      82720
       6  | 18:22.71 |    4:16.66   |       82721      |     101986
       7  | 22:39.62 |    3:00.65   |      101987      |     115551
       8  | 25:40.52 |    4:02.69   |      115552      |     133770
       9  | 29:43.46 |    4:33.59   |      133771      |     154304
      10  | 34:17.30 |    4:04.64   |      154305      |     172668
      11  | 38:22.19 |    4:37.43   |      172669      |     193486
      12  | 42:59.62 |    3:17.65   |      193487      |     208326
      13  | 46:17.52 |    5:02.08   |      208327      |     230984
Характеристики диапазона извлечения и сообщения об ошибках
Выбранный диапазон
     Имя файла C:\Users\workutagin\Desktop\CRYSTAL BALL - CRYSTALLIZER 2018\Crystal Ball - Crystallizer.wav
     Пиковый уровень 100.0 %
     Скорость извлечения 2.0 X
     Качество диапазона 100.0 %
     CRC теста D3037762
     CRC копии D3037762
     Копирование... OK
Ошибок не произошло
AccurateRip: сводка
Трек  1  отсутствует в базе данных
Трек  2  отсутствует в базе данных
Трек  3  отсутствует в базе данных
Трек  4  отсутствует в базе данных
Трек  5  отсутствует в базе данных
Трек  6  отсутствует в базе данных
Трек  7  отсутствует в базе данных
Трек  8  отсутствует в базе данных
Трек  9  отсутствует в базе данных
Трек 10  отсутствует в базе данных
Трек 11  отсутствует в базе данных
Трек 12  отсутствует в базе данных
Трек 13  отсутствует в базе данных
Ни одного трека нет в базе AccurateRip
Конец отчёта
Код:
REM GENRE "Heavy Metal"
REM DATE 2018
REM DISCID B30C070D
REM COMMENT "ExactAudioCopy v1.3"
PERFORMER "Crystal Ball"
TITLE "Crystallizer"
REM COMPOSER ""
FILE "Crystal Ball - Crystallizer.flac" WAVE
  TRACK 01 AUDIO
    TITLE "Crystallizer"
    PERFORMER "Crystal Ball"
    REM COMPOSER "Crystal Ball"
    INDEX 01 00:00:00
  TRACK 02 AUDIO
    TITLE "Curtain Call"
    PERFORMER "Crystal Ball"
    REM COMPOSER "Crystal Ball"
    INDEX 01 03:56:22
  TRACK 03 AUDIO
    TITLE "Alive For Evermore"
    PERFORMER "Crystal Ball"
    REM COMPOSER "Crystal Ball"
    INDEX 01 07:29:34
  TRACK 04 AUDIO
    TITLE "S.O.S."
    PERFORMER "Crystal Ball"
    REM COMPOSER "Crystal Ball"
    INDEX 01 11:16:51
  TRACK 05 AUDIO
    TITLE "Crazy In The Night"
    PERFORMER "Crystal Ball"
    REM COMPOSER "Crystal Ball"
    INDEX 01 15:15:02
  TRACK 06 AUDIO
    TITLE "Gentleman's Agreement"
    PERFORMER "Crystal Ball"
    REM COMPOSER "Crystal Ball"
    INDEX 01 18:22:71
  TRACK 07 AUDIO
    TITLE "Let Her Go"
    PERFORMER "Crystal Ball"
    REM COMPOSER "Crystal Ball"
    INDEX 01 22:39:62
  TRACK 08 AUDIO
    TITLE "The Beauty In The Beast"
    PERFORMER "Crystal Ball"
    REM COMPOSER "Crystal Ball"
    INDEX 00 25:38:52
    INDEX 01 25:40:52
  TRACK 09 AUDIO
    TITLE "Death On Holy Ground"
    PERFORMER "Crystal Ball"
    REM COMPOSER "Crystal Ball"
    INDEX 01 29:43:46
  TRACK 10 AUDIO
    TITLE "Satisfaction Guaranteed"
    PERFORMER "Crystal Ball"
    REM COMPOSER "Crystal Ball"
    INDEX 01 34:17:30
  TRACK 11 AUDIO
    TITLE "Exit Wound"
    PERFORMER "Crystal Ball"
    REM COMPOSER "Crystal Ball"
    INDEX 01 38:22:19
  TRACK 12 AUDIO
    TITLE "Dusty Deadly"
    PERFORMER "Crystal Ball"
    REM COMPOSER "Crystal Ball"
    INDEX 00 42:57:62
    INDEX 01 42:59:62
  TRACK 13 AUDIO
    TITLE "Symphony Of Life"
    PERFORMER "Crystal Ball"
    REM COMPOSER "Crystal Ball"
    INDEX 01 46:17:52
- --
Download / Скачать

Хотите скачать бесплатно? Зарегистрируйтесь на сайте (ссылка на регистрацию). Pirat.ca - самый быстрый торрент трекер в рунете!

Как скачивать  ·   Что такое торрент  ·   Рейтинг и ограничения

Показать сообщения:    
Ответить на тему

Текущее время: Сегодня 23:31

Часовой пояс: GMT + 4



Вы не можете начинать темы
Вы не можете отвечать на сообщения
Вы не можете редактировать свои сообщения
Вы не можете удалять свои сообщения
Вы не можете голосовать в опросах
Вы не можете прикреплять файлы к сообщениям
Вы не можете скачивать файлы

Майнать ▼