(Rock, Hard Rock, Heavy Metal) VA - Absolute Rock Classics (2CD) - 2001 [FLAC, tracks +.cue, lossless]

Ответить на тему
 
Автор
Сообщение

Пост 05-Сен-2018 14:23

[Q] 

sergej644

-VA - Absolute Rock Classics (2CD)--
Год издания: 2001
Страна:
Жанр: Rock, Hard Rock, Heavy Metal
Продолжительность: 02:02:33-Лейбл издания: Absolute
Страна-выпуска диска: EU
Номер по каталогу: ACCD 3001-Формат: FLAC
Битрейт аудио: Lossless
Тип рипа: tracks +.cue
Наличие сканов в содержимом раздачи: front
-

01. Queen - We Will Rock You (2:02)
02. Deep Purple - Smoke On The Water (5:28)
03. ZZ Top - Tush (2:14)
04. Sweet - Ballroom Blitz (4:02)
05. Iggy Pop - The Passenger (4:42)
06. David Bowie - Ziggy Stardust (3:13)
07. Alice Cooper - School's Out (3:27)
08. Black Sabbath - Paranoid (2:46)
09. Motörhead - Ace Of Spades (2:47)
10. Nazareth - Razamanaz (3:47)
11. Europe - The Final countdown (3:59)
12. Whitesnake - Here I Go Again (3:53)
13. Scorpions - Rock You Like a Hurricane (4:12)
14. Judas Priest - Living After Midnight (3:27)
15. Meat Loaf - Dead Ringer For Love (4:23)
16. Gary Moore & Phil Lynott - Out In The Fields (4:16)
17. Billy Idol - Rebel Yell (4:47)

01. The Clash - Should I Stay Or Should I Go (3:07)
02. Sex Pistols - God Save The Queen (3:18)
03. Tom Robinson Band - 2-4-6-8 Motorway (3:17)
04. Bad Company - Can't Get Enough (3:26)
05. Dr Feelgood - Milk And Alcohol (2:47)
06. Bachman Turner Overdrive - You Ain't Seen Nothing Yet (3:32)
07. Ram Jam - Black Betty (3:58)
08. JJ Cale - Cocaine (2:50)
09. Bryan Ferry - Let's Stick Together (2:57)
10. Foreigner - Urgent (4:26)
11. Yes - Owner Of A Lonely Heart (4:24)
12. City Boy - 5.7.0.5. (3:13)
13. Mott The Hoople - Roll Away The Stone (3:07)
14. 10 CC - Wall Street Shuffle (3:51)
15. REO Speedwagon - Take It On The Run (4:00)
16. Boston - More Than A Feeling (3:21)
17. Steve Miller Band - The Joker (3:34)
-
Код:
Exact Audio Copy V1.3 from 2. September 2016
EAC extraction logfile from 30. August 2017, 19:05
Various / Absolute Rock Classics
Used drive  : PLDS    DVD-RW DA8A6SH   Adapter: 1  ID: 0
Read mode               : Secure
Utilize accurate stream : Yes
Defeat audio cache      : Yes
Make use of C2 pointers : No
Read offset correction                      : 6
Overread into Lead-In and Lead-Out          : No
Fill up missing offset samples with silence : Yes
Delete leading and trailing silent blocks   : No
Null samples used in CRC calculations       : Yes
Used interface                              : Native Win32 interface for Win NT & 2000
Gap handling                                : Appended to previous track
Used output format              : User Defined Encoder
Selected bitrate                : 1024 kBit/s
Quality                         : High
Add ID3 tag                     : No
Command line compressor         : C:\Program Files (x86)\Exact Audio Copy\Flac\flac.exe
Additional command line options : -8 -V -T "ARTIST=%artist%" -T "TITLE=%title%" -T "ALBUM=%albumtitle%" -T "DATE=%year%" -T "TRACKNUMBER=%tracknr%" -T "GENRE=%genre%" -T "PERFORMER=%albuminterpret%" -T "COMPOSER=%composer%" %haslyrics%--tag-from-file=LYRICS="%lyricsfile%"%haslyrics% -T "ALBUMARTIST=%albumartist%" -T "DISCNUMBER=%cdnumber%" -T "TOTALDISCS=%totalcds%" -T "TOTALTRACKS=%numtracks%" -T "COMMENT=%comment%" %source% -o %dest%
TOC of the extracted CD
     Track |   Start  |  Length  | Start sector | End sector
    ---------------------------------------------------------
        1  |  0:00.00 |  2:01.58 |         0    |     9132
        2  |  2:01.58 |  5:27.51 |      9133    |    33708
        3  |  7:29.34 |  2:14.34 |     33709    |    43792
        4  |  9:43.68 |  4:01.50 |     43793    |    61917
        5  | 13:45.43 |  4:41.44 |     61918    |    83036
        6  | 18:27.12 |  3:13.13 |     83037    |    97524
        7  | 21:40.25 |  3:27.15 |     97525    |   113064
        8  | 25:07.40 |  2:46.33 |    113065    |   125547
        9  | 27:53.73 |  2:46.55 |    125548    |   138052
       10  | 30:40.53 |  3:46.45 |    138053    |   155047
       11  | 34:27.23 |  3:58.47 |    155048    |   172944
       12  | 38:25.70 |  3:52.66 |    172945    |   190410
       13  | 42:18.61 |  4:11.71 |    190411    |   209306
       14  | 46:30.57 |  3:27.04 |    209307    |   224835
       15  | 49:57.61 |  4:22.61 |    224836    |   244546
       16  | 54:20.47 |  4:15.72 |    244547    |   263743
       17  | 58:36.44 |  4:47.37 |    263744    |   285305
Track  1
     Filename C:\EAC\VA\Various Artists - 2001 - Absolute Rock Classics\Disc 1\01  - Queen - We Will Rock You.wav
     Pre-gap length  0:00:02.00
     Peak level 98.9 %
     Extraction speed 1.8 X
     Track quality 100.0 %
     Test CRC 95FA4F30
     Copy CRC 95FA4F30
     Accurately ripped (confidence 9)  [654E0136]  (AR v2)
     Copy OK
Track  2
     Filename C:\EAC\VA\Various Artists - 2001 - Absolute Rock Classics\Disc 1\02  - Deep Purple - Smoke On The Water.wav
     Peak level 98.9 %
     Extraction speed 2.1 X
     Track quality 99.9 %
     Test CRC 42A7BC05
     Copy CRC 42A7BC05
     Accurately ripped (confidence 9)  [5C5FED9B]  (AR v2)
     Copy OK
Track  3
     Filename C:\EAC\VA\Various Artists - 2001 - Absolute Rock Classics\Disc 1\03  - ZZ Top - Tush.wav
     Peak level 98.9 %
     Extraction speed 1.7 X
     Track quality 99.9 %
     Test CRC 0426D262
     Copy CRC 0426D262
     Accurately ripped (confidence 9)  [D7B2208A]  (AR v2)
     Copy OK
Track  4
     Filename C:\EAC\VA\Various Artists - 2001 - Absolute Rock Classics\Disc 1\04  - Sweet - Ballroom Blitz.wav
     Peak level 98.9 %
     Extraction speed 2.2 X
     Track quality 99.9 %
     Test CRC 926510B9
     Copy CRC 926510B9
     Accurately ripped (confidence 9)  [A45FFE79]  (AR v2)
     Copy OK
Track  5
     Filename C:\EAC\VA\Various Artists - 2001 - Absolute Rock Classics\Disc 1\05  - Iggy Pop - The Passenger.wav
     Peak level 98.9 %
     Extraction speed 2.9 X
     Track quality 100.0 %
     Test CRC A51CC6C0
     Copy CRC A51CC6C0
     Accurately ripped (confidence 9)  [C85D6F46]  (AR v2)
     Copy OK
Track  6
     Filename C:\EAC\VA\Various Artists - 2001 - Absolute Rock Classics\Disc 1\06  - David Bowie - Ziggy Stardust.wav
     Peak level 98.9 %
     Extraction speed 2.4 X
     Track quality 99.9 %
     Test CRC DC148547
     Copy CRC DC148547
     Accurately ripped (confidence 9)  [1C4E986B]  (AR v2)
     Copy OK
Track  7
     Filename C:\EAC\VA\Various Artists - 2001 - Absolute Rock Classics\Disc 1\07  - Alice Cooper - School's Out.wav
     Peak level 98.9 %
     Extraction speed 3.1 X
     Track quality 100.0 %
     Test CRC F644E8EF
     Copy CRC F644E8EF
     Accurately ripped (confidence 9)  [EEED2133]  (AR v2)
     Copy OK
Track  8
     Filename C:\EAC\VA\Various Artists - 2001 - Absolute Rock Classics\Disc 1\08  - Black Sabbath - Paranoid.wav
     Peak level 98.9 %
     Extraction speed 3.1 X
     Track quality 100.0 %
     Test CRC 38117C34
     Copy CRC 38117C34
     Accurately ripped (confidence 9)  [FBD6B951]  (AR v2)
     Copy OK
Track  9
     Filename C:\EAC\VA\Various Artists - 2001 - Absolute Rock Classics\Disc 1\09  - Motörhead - Ace Of Spades.wav
     Peak level 98.9 %
     Extraction speed 3.2 X
     Track quality 100.0 %
     Test CRC 015181AB
     Copy CRC 015181AB
     Accurately ripped (confidence 9)  [B7EFFD90]  (AR v2)
     Copy OK
Track 10
     Filename C:\EAC\VA\Various Artists - 2001 - Absolute Rock Classics\Disc 1\10  - Nazareth - Razamanaz.wav
     Peak level 98.9 %
     Extraction speed 3.5 X
     Track quality 100.0 %
     Test CRC 28F0C7F8
     Copy CRC 28F0C7F8
     Accurately ripped (confidence 9)  [991A9F49]  (AR v2)
     Copy OK
Track 11
     Filename C:\EAC\VA\Various Artists - 2001 - Absolute Rock Classics\Disc 1\11  - Europe - The Final countdown.wav
     Peak level 98.9 %
     Extraction speed 3.7 X
     Track quality 100.0 %
     Test CRC A31F08A3
     Copy CRC A31F08A3
     Accurately ripped (confidence 9)  [1462EF75]  (AR v2)
     Copy OK
Track 12
     Filename C:\EAC\VA\Various Artists - 2001 - Absolute Rock Classics\Disc 1\12  - Whitesnake - Here I Go Again.wav
     Peak level 98.7 %
     Extraction speed 3.8 X
     Track quality 100.0 %
     Test CRC 9F178205
     Copy CRC 9F178205
     Accurately ripped (confidence 9)  [BD3F624F]  (AR v2)
     Copy OK
Track 13
     Filename C:\EAC\VA\Various Artists - 2001 - Absolute Rock Classics\Disc 1\13  - Scorpions - Rock You Like a Hurricane.wav
     Peak level 98.9 %
     Extraction speed 4.0 X
     Track quality 100.0 %
     Test CRC FB444FD7
     Copy CRC FB444FD7
     Accurately ripped (confidence 9)  [9AA43147]  (AR v2)
     Copy OK
Track 14
     Filename C:\EAC\VA\Various Artists - 2001 - Absolute Rock Classics\Disc 1\14  - Judas Priest - Living After Midnight.wav
     Peak level 95.5 %
     Extraction speed 4.0 X
     Track quality 100.0 %
     Test CRC 31B22528
     Copy CRC 31B22528
     Accurately ripped (confidence 9)  [AB7E659C]  (AR v2)
     Copy OK
Track 15
     Filename C:\EAC\VA\Various Artists - 2001 - Absolute Rock Classics\Disc 1\15  - Meat Loaf - Dead Ringer For Love.wav
     Peak level 98.9 %
     Extraction speed 4.3 X
     Track quality 100.0 %
     Test CRC E04C1A90
     Copy CRC E04C1A90
     Accurately ripped (confidence 9)  [D9789CB7]  (AR v2)
     Copy OK
Track 16
     Filename C:\EAC\VA\Various Artists - 2001 - Absolute Rock Classics\Disc 1\16  - Gary Moore - Out In The Fields.wav
     Peak level 98.9 %
     Extraction speed 3.7 X
     Track quality 99.9 %
     Test CRC 444AC4D2
     Copy CRC 444AC4D2
     Accurately ripped (confidence 9)  [13232050]  (AR v2)
     Copy OK
Track 17
     Filename C:\EAC\VA\Various Artists - 2001 - Absolute Rock Classics\Disc 1\17  - Billy Idol - Rebel Yell.wav
     Peak level 98.9 %
     Extraction speed 3.9 X
     Track quality 99.9 %
     Test CRC 17030159
     Copy CRC 17030159
     Accurately ripped (confidence 9)  [3EFB8D44]  (AR v2)
     Copy OK
All tracks accurately ripped
No errors occurred
End of status report
Код:
Exact Audio Copy V1.3 from 2. September 2016
EAC extraction logfile from 30. August 2017, 20:56
Various Artists / Absolute Rock Classics
Used drive  : PLDS    DVD-RW DA8A6SH   Adapter: 1  ID: 0
Read mode               : Secure
Utilize accurate stream : Yes
Defeat audio cache      : Yes
Make use of C2 pointers : No
Read offset correction                      : 6
Overread into Lead-In and Lead-Out          : No
Fill up missing offset samples with silence : Yes
Delete leading and trailing silent blocks   : No
Null samples used in CRC calculations       : Yes
Used interface                              : Native Win32 interface for Win NT & 2000
Gap handling                                : Appended to previous track
Used output format              : User Defined Encoder
Selected bitrate                : 1024 kBit/s
Quality                         : High
Add ID3 tag                     : No
Command line compressor         : C:\Program Files (x86)\Exact Audio Copy\Flac\flac.exe
Additional command line options : -8 -V -T "ARTIST=%artist%" -T "TITLE=%title%" -T "ALBUM=%albumtitle%" -T "DATE=%year%" -T "TRACKNUMBER=%tracknr%" -T "GENRE=%genre%" -T "PERFORMER=%albuminterpret%" -T "COMPOSER=%composer%" %haslyrics%--tag-from-file=LYRICS="%lyricsfile%"%haslyrics% -T "ALBUMARTIST=%albumartist%" -T "DISCNUMBER=%cdnumber%" -T "TOTALDISCS=%totalcds%" -T "TOTALTRACKS=%numtracks%" -T "COMMENT=%comment%" %source% -o %dest%
TOC of the extracted CD
     Track |   Start  |  Length  | Start sector | End sector
    ---------------------------------------------------------
        1  |  0:00.00 |  3:07.00 |         0    |    14024
        2  |  3:07.00 |  3:18.16 |     14025    |    28890
        3  |  6:25.16 |  3:16.63 |     28891    |    43653
        4  |  9:42.04 |  3:26.27 |     43654    |    59130
        5  | 13:08.31 |  2:47.11 |     59131    |    71666
        6  | 15:55.42 |  3:31.62 |     71667    |    87553
        7  | 19:27.29 |  3:57.42 |     87554    |   105370
        8  | 23:24.71 |  2:50.18 |    105371    |   118138
        9  | 26:15.14 |  2:57.21 |    118139    |   131434
       10  | 29:12.35 |  4:26.30 |    131435    |   151414
       11  | 33:38.65 |  4:23.48 |    151415    |   171187
       12  | 38:02.38 |  3:13.11 |    171188    |   185673
       13  | 41:15.49 |  3:07.19 |    185674    |   199717
       14  | 44:22.68 |  3:51.33 |    199718    |   217075
       15  | 48:14.26 |  3:59.61 |    217076    |   235061
       16  | 52:14.12 |  3:21.10 |    235062    |   250146
       17  | 55:35.22 |  3:33.66 |    250147    |   266187
Track  1
     Filename C:\EAC\VA\Various Artists - 2001 - Absolute Rock Classics\Disc 2\01  - Clash - Should I Stay Or Should I Go.wav
     Pre-gap length  0:00:02.00
     Peak level 98.9 %
     Extraction speed 1.0 X
     Track quality 100.0 %
     Test CRC 590630AA
     Copy CRC 590630AA
     Accurately ripped (confidence 8)  [CEA37C0B]  (AR v2)
     Copy OK
Track  2
     Filename C:\EAC\VA\Various Artists - 2001 - Absolute Rock Classics\Disc 2\02  - Sex Pistols - God Save The Queen.wav
     Peak level 98.9 %
     Extraction speed 1.0 X
     Track quality 99.9 %
     Test CRC 3721F3F6
     Copy CRC 3721F3F6
     Accurately ripped (confidence 9)  [7337E3A5]  (AR v2)
     Copy OK
Track  3
     Filename C:\EAC\VA\Various Artists - 2001 - Absolute Rock Classics\Disc 2\03  - Tom Robinson Band - 2-4-6-8 Motorway.wav
     Peak level 98.9 %
     Extraction speed 1.1 X
     Track quality 99.9 %
     Test CRC DD89FDAB
     Copy CRC DD89FDAB
     Accurately ripped (confidence 9)  [25584A75]  (AR v2)
     Copy OK
Track  4
     Filename C:\EAC\VA\Various Artists - 2001 - Absolute Rock Classics\Disc 2\04  - Bad Company - Can't Get Enough.wav
     Peak level 98.9 %
     Extraction speed 1.3 X
     Track quality 100.0 %
     Test CRC E90B7DBE
     Copy CRC E90B7DBE
     Accurately ripped (confidence 9)  [B373D256]  (AR v2)
     Copy OK
Track  5
     Filename C:\EAC\VA\Various Artists - 2001 - Absolute Rock Classics\Disc 2\05  - Dr Feelgood - Milk And Alcohol.wav
     Peak level 98.9 %
     Extraction speed 1.3 X
     Track quality 100.0 %
     Test CRC E0377417
     Copy CRC E0377417
     Accurately ripped (confidence 9)  [B747B4CD]  (AR v2)
     Copy OK
Track  6
     Filename C:\EAC\VA\Various Artists - 2001 - Absolute Rock Classics\Disc 2\06  - Bachman Turner Overdrive - You Ain't Seen Nothing Yet.wav
     Peak level 98.9 %
     Extraction speed 1.3 X
     Track quality 99.9 %
     Test CRC F623A1CF
     Copy CRC F623A1CF
     Accurately ripped (confidence 9)  [24E3BF2E]  (AR v2)
     Copy OK
Track  7
     Filename C:\EAC\VA\Various Artists - 2001 - Absolute Rock Classics\Disc 2\07  - Ram Jam - Black Betty.wav
     Peak level 98.9 %
     Extraction speed 1.6 X
     Track quality 100.0 %
     Test CRC 167ED08D
     Copy CRC 167ED08D
     Accurately ripped (confidence 9)  [7B2792C6]  (AR v2)
     Copy OK
Track  8
     Filename C:\EAC\VA\Various Artists - 2001 - Absolute Rock Classics\Disc 2\08  - JJ Cale - Cocaine.wav
     Peak level 98.9 %
     Extraction speed 1.6 X
     Track quality 100.0 %
     Test CRC FF3D0685
     Copy CRC FF3D0685
     Accurately ripped (confidence 9)  [BE397D3A]  (AR v2)
     Copy OK
Track  9
     Filename C:\EAC\VA\Various Artists - 2001 - Absolute Rock Classics\Disc 2\09  - Bryan Ferry - Let's Stick Together.wav
     Peak level 94.4 %
     Extraction speed 1.4 X
     Track quality 99.9 %
     Test CRC 87D26375
     Copy CRC 87D26375
     Accurately ripped (confidence 8)  [45D9FBF1]  (AR v2)
     Copy OK
Track 10
     Filename C:\EAC\VA\Various Artists - 2001 - Absolute Rock Classics\Disc 2\10  - Foreigner - Urgent.wav
     Peak level 98.9 %
     Extraction speed 1.8 X
     Track quality 100.0 %
     Test CRC 65859621
     Copy CRC 65859621
     Accurately ripped (confidence 9)  [E8AB0F4C]  (AR v2)
     Copy OK
Track 11
     Filename C:\EAC\VA\Various Artists - 2001 - Absolute Rock Classics\Disc 2\11  - Yes - Owner Of A Lonely Heart.wav
     Peak level 98.8 %
     Extraction speed 1.9 X
     Track quality 100.0 %
     Test CRC A4E3EBC1
     Copy CRC A4E3EBC1
     Accurately ripped (confidence 8)  [66BBDC7C]  (AR v2)
     Copy OK
Track 12
     Filename C:\EAC\VA\Various Artists - 2001 - Absolute Rock Classics\Disc 2\12  - City Boy - 5.7.0.5..wav
     Peak level 93.3 %
     Extraction speed 1.9 X
     Track quality 100.0 %
     Test CRC 7616648D
     Copy CRC 7616648D
     Accurately ripped (confidence 9)  [8EF772F4]  (AR v2)
     Copy OK
Track 13
     Filename C:\EAC\VA\Various Artists - 2001 - Absolute Rock Classics\Disc 2\13  - Mott The Hoople - Roll Away The Stone.wav
     Peak level 98.9 %
     Extraction speed 1.7 X
     Track quality 99.9 %
     Test CRC 751CAB84
     Copy CRC 751CAB84
     Accurately ripped (confidence 9)  [53014B09]  (AR v2)
     Copy OK
Track 14
     Filename C:\EAC\VA\Various Artists - 2001 - Absolute Rock Classics\Disc 2\14  - 10 CC - Wall Street Shuffle.wav
     Peak level 98.9 %
     Extraction speed 2.1 X
     Track quality 100.0 %
     Test CRC 06818258
     Copy CRC 06818258
     Accurately ripped (confidence 9)  [EC38C563]  (AR v2)
     Copy OK
Track 15
     Filename C:\EAC\VA\Various Artists - 2001 - Absolute Rock Classics\Disc 2\15  - REO Speedwagon - Take It On The Run.wav
     Peak level 98.9 %
     Extraction speed 2.1 X
     Track quality 100.0 %
     Test CRC 1D508EC8
     Copy CRC 1D508EC8
     Accurately ripped (confidence 9)  [A4A7EB3D]  (AR v2)
     Copy OK
Track 16
     Filename C:\EAC\VA\Various Artists - 2001 - Absolute Rock Classics\Disc 2\16  - Boston - More Than A Feeling.wav
     Peak level 98.9 %
     Extraction speed 2.1 X
     Track quality 100.0 %
     Test CRC 0BCA2ADF
     Copy CRC 0BCA2ADF
     Accurately ripped (confidence 9)  [24625EE2]  (AR v2)
     Copy OK
Track 17
     Filename C:\EAC\VA\Various Artists - 2001 - Absolute Rock Classics\Disc 2\17  - Steve Miller Band - The Joker.wav
     Pre-gap length  0:00:00.01
     Peak level 98.9 %
     Extraction speed 2.2 X
     Track quality 100.0 %
     Test CRC 67D9494E
     Copy CRC 67D9494E
     Accurately ripped (confidence 9)  [895386CF]  (AR v2)
     Copy OK
All tracks accurately ripped
No errors occurred
End of status report
Код:
REM GENRE Rock
REM DATE 2001
REM DISCID EE0EDC11
REM COMMENT "ExactAudioCopy v1.3"
FILE "01  - Queen - We Will Rock You.wav" WAVE
  TRACK 01 AUDIO
    INDEX 01 00:00:00
FILE "02  - Deep Purple - Smoke On The Water.wav" WAVE
  TRACK 02 AUDIO
    INDEX 01 00:00:00
FILE "03  - ZZ Top - Tush.wav" WAVE
  TRACK 03 AUDIO
    INDEX 01 00:00:00
FILE "04  - Sweet - Ballroom Blitz.wav" WAVE
  TRACK 04 AUDIO
    INDEX 01 00:00:00
FILE "05  - Iggy Pop - The Passenger.wav" WAVE
  TRACK 05 AUDIO
    INDEX 01 00:00:00
FILE "06  - David Bowie - Ziggy Stardust.wav" WAVE
  TRACK 06 AUDIO
    INDEX 01 00:00:00
FILE "07  - Alice Cooper - School's Out.wav" WAVE
  TRACK 07 AUDIO
    INDEX 01 00:00:00
FILE "08  - Black Sabbath - Paranoid.wav" WAVE
  TRACK 08 AUDIO
    INDEX 01 00:00:00
FILE "09  - Motцrhead - Ace Of Spades.wav" WAVE
  TRACK 09 AUDIO
    INDEX 01 00:00:00
FILE "10  - Nazareth - Razamanaz.wav" WAVE
  TRACK 10 AUDIO
    INDEX 01 00:00:00
FILE "11  - Europe - The Final countdown.wav" WAVE
  TRACK 11 AUDIO
    INDEX 01 00:00:00
FILE "12  - Whitesnake - Here I Go Again.wav" WAVE
  TRACK 12 AUDIO
    INDEX 01 00:00:00
FILE "13  - Scorpions - Rock You Like a Hurricane.wav" WAVE
  TRACK 13 AUDIO
    INDEX 01 00:00:00
FILE "14  - Judas Priest - Living After Midnight.wav" WAVE
  TRACK 14 AUDIO
    INDEX 01 00:00:00
FILE "15  - Meat Loaf - Dead Ringer For Love.wav" WAVE
  TRACK 15 AUDIO
    INDEX 01 00:00:00
FILE "16  - Gary Moore & Phil Lynott - Out In The Fields.wav" WAVE
  TRACK 16 AUDIO
    INDEX 01 00:00:00
FILE "17  - Billy Idol - Rebel Yell.wav" WAVE
  TRACK 17 AUDIO
    INDEX 01 00:00:00
Код:
REM GENRE Rock
REM DATE 2001
REM DISCID 0E0DDD11
REM COMMENT "ExactAudioCopy v1.3"
FILE "01  - The Clash - Should I Stay Or Should I Go.wav" WAVE
  TRACK 01 AUDIO
    INDEX 01 00:00:00
FILE "02  - Sex Pistols - God Save The Queen.wav" WAVE
  TRACK 02 AUDIO
    INDEX 01 00:00:00
FILE "03  - Tom Robinson Band - 2-4-6-8 Motorway.wav" WAVE
  TRACK 03 AUDIO
    INDEX 01 00:00:00
FILE "04  - Bad Company - Can't Get Enough.wav" WAVE
  TRACK 04 AUDIO
    INDEX 01 00:00:00
FILE "05  - Dr Feelgood - Milk And Alcohol.wav" WAVE
  TRACK 05 AUDIO
    INDEX 01 00:00:00
FILE "06  - Bachman Turner Overdrive - You Ain't Seen Nothing Yet.wav" WAVE
  TRACK 06 AUDIO
    INDEX 01 00:00:00
FILE "07  - Ram Jam - Black Betty.wav" WAVE
  TRACK 07 AUDIO
    INDEX 01 00:00:00
FILE "08  - JJ Cale - Cocaine.wav" WAVE
  TRACK 08 AUDIO
    INDEX 01 00:00:00
FILE "09  - Bryan Ferry - Let's Stick Together.wav" WAVE
  TRACK 09 AUDIO
    INDEX 01 00:00:00
FILE "10  - Foreigner - Urgent.wav" WAVE
  TRACK 10 AUDIO
    INDEX 01 00:00:00
FILE "11  - Yes - Owner Of A Lonely Heart.wav" WAVE
  TRACK 11 AUDIO
    INDEX 01 00:00:00
FILE "12  - City Boy - 5.7.0.5..wav" WAVE
  TRACK 12 AUDIO
    INDEX 01 00:00:00
FILE "13  - Mott The Hoople - Roll Away The Stone.wav" WAVE
  TRACK 13 AUDIO
    INDEX 01 00:00:00
FILE "14  - 10 CC - Wall Street Shuffle.wav" WAVE
  TRACK 14 AUDIO
    INDEX 01 00:00:00
FILE "15  - REO Speedwagon - Take It On The Run.wav" WAVE
  TRACK 15 AUDIO
    INDEX 01 00:00:00
FILE "16  - Boston - More Than A Feeling.wav" WAVE
  TRACK 16 AUDIO
    INDEX 01 00:00:00
  TRACK 17 AUDIO
    INDEX 00 03:21:09
FILE "17  - Steve Miller Band - The Joker.wav" WAVE
    INDEX 01 00:00:00
--
Download / Скачать

Хотите скачать бесплатно? Зарегистрируйтесь на сайте (ссылка на регистрацию). Pirat.ca - самый быстрый торрент трекер в рунете!

Как скачивать  ·   Что такое торрент  ·   Рейтинг и ограничения

Показать сообщения:    
Ответить на тему

Текущее время: Сегодня 04:24

Часовой пояс: GMT + 4



Вы не можете начинать темы
Вы не можете отвечать на сообщения
Вы не можете редактировать свои сообщения
Вы не можете удалять свои сообщения
Вы не можете голосовать в опросах
Вы не можете прикреплять файлы к сообщениям
Вы не можете скачивать файлы

Майнать ▼