(Rock, Hard Rock, Heavy Metal) VA - Absolute Rock Classics 2 (2CD) - 2002 [FLAC, tracks +.cue, lossless]

Ответить на тему
 
Автор
Сообщение

Пост 05-Сен-2018 14:24

[Q] 

sergej644

-VA - Absolute Rock Classics 2 (2CD)--
Год издания: 2002
Страна:
Жанр: Rock, Hard Rock, Heavy Metal
Продолжительность: 02:10:17-Лейбл издания: Absolute
Страна-выпуска диска: EU
Номер по каталогу: ACCD 3005-Формат: FLAC
Битрейт аудио: Lossless
Тип рипа: tracks +.cue
Наличие сканов в содержимом раздачи: front
-

01. Queen - Killer Queen (3:00)
02. Van Halen - Jump (3:57)
03. ZZ Top - Gimme All Your Loving (3:58)
04. Twisted Sisters - I Wanna Rock (3:01)
05. Alice Cooper - Poison (4:24)
06. T. Rex - 20th Century Boy (3:36)
07. Sweet - Fox On The Run (3:22)
08. David Bowie - Suffragette City (3:24)
09. Toto - Hold The Line (3:55)
10. Status Quo - Rockin' All Over The World (3:28)
11. Free - All Right Now (4:13)
12. Thin Lizzy - Whisky In The Jar (3:38)
13. Gary Moore - Over The Hills And Far Away (5:17)
14. Judas Priest - Breaking The Law (2:34)
15. Saxon - Princess Of The Night (4:00)
16. Deep Purple - Strange Kind Of Woman (3:46)
17. Black Sabbath - Iron Man (5:54)

01. Ramones - Sheena Is A Punk Rocker (2:47)
02. Sex Pistols - Anarchy In The UK (3:30)
03. Billy Idol - White Wedding (4:09)
04. The Knack - My Sharona (3:59)
05. Run DMC & Aerosmith - Walk This Way (3:35)
06. Simple Minds - Don't You Forget About Me (4:18)
07. The J. Geils Band - Centerfold (3:36)
08. Robert Palmer - Bad Case Of Loving You (3:11)
09. Roxy Music - Love Is The Drug (3:57)
10. Blondie - Denis (2:15)
11. Suzi Quatro - 48 Crash (3:54)
12. Blue Öyster Cult - Goin' Through The Motions (3:11)
13. Rainbow - Long Live Rock'n'Roll (4:17)
14. Nazareth - Broken Down Angel (3:35)
15. Iggy Pop - Lust For Life (5:09)
16. Gary Glitter - Rock'n'Roll (2:56)
17. Mott The Hoople - All The Young Dudes (3:28)
18. The Pretenders - Brass In Pocket (3:04)
-
Код:
Exact Audio Copy V1.3 from 2. September 2016
EAC extraction logfile from 10. September 2017, 13:56
Various Artists / Absolute Rock Classics 2
Used drive  : PLDS    DVD-RW DA8A6SH   Adapter: 1  ID: 0
Read mode               : Secure
Utilize accurate stream : Yes
Defeat audio cache      : Yes
Make use of C2 pointers : No
Read offset correction                      : 6
Overread into Lead-In and Lead-Out          : No
Fill up missing offset samples with silence : Yes
Delete leading and trailing silent blocks   : No
Null samples used in CRC calculations       : Yes
Used interface                              : Native Win32 interface for Win NT & 2000
Gap handling                                : Appended to previous track
Used output format              : User Defined Encoder
Selected bitrate                : 1024 kBit/s
Quality                         : High
Add ID3 tag                     : No
Command line compressor         : C:\Program Files (x86)\Exact Audio Copy\Flac\flac.exe
Additional command line options : -8 -V -T "ARTIST=%artist%" -T "TITLE=%title%" -T "ALBUM=%albumtitle%" -T "DATE=%year%" -T "TRACKNUMBER=%tracknr%" -T "GENRE=%genre%" -T "PERFORMER=%albuminterpret%" -T "COMPOSER=%composer%" %haslyrics%--tag-from-file=LYRICS="%lyricsfile%"%haslyrics% -T "ALBUMARTIST=%albumartist%" -T "DISCNUMBER=%cdnumber%" -T "TOTALDISCS=%totalcds%" -T "TOTALTRACKS=%numtracks%" -T "COMMENT=%comment%" %source% -o %dest%
TOC of the extracted CD
     Track |   Start  |  Length  | Start sector | End sector
    ---------------------------------------------------------
        1  |  0:00.00 |  3:00.11 |         0    |    13510
        2  |  3:00.11 |  3:57.02 |     13511    |    31287
        3  |  6:57.13 |  3:58.32 |     31288    |    49169
        4  | 10:55.45 |  3:00.69 |     49170    |    62738
        5  | 13:56.39 |  4:23.47 |     62739    |    82510
        6  | 18:20.11 |  3:36.35 |     82511    |    98745
        7  | 21:56.46 |  3:21.38 |     98746    |   113858
        8  | 25:18.09 |  3:23.55 |    113859    |   129138
        9  | 28:41.64 |  3:54.72 |    129139    |   146760
       10  | 32:36.61 |  3:27.53 |    146761    |   162338
       11  | 36:04.39 |  4:12.38 |    162339    |   181276
       12  | 40:17.02 |  3:37.62 |    181277    |   197613
       13  | 43:54.64 |  5:16.63 |    197614    |   221376
       14  | 49:11.52 |  2:33.40 |    221377    |   232891
       15  | 51:45.17 |  3:59.72 |    232892    |   250888
       16  | 55:45.14 |  3:45.67 |    250889    |   267830
       17  | 59:31.06 |  5:53.48 |    267831    |   294353
Track  1
     Filename C:\EAC\Various Artists - 2002 - Absolute Rock Classics 2\Disc 1\01  - Queen - Killer Queen.wav
     Pre-gap length  0:00:02.00
     Peak level 98.8 %
     Extraction speed 1.0 X
     Track quality 100.0 %
     Test CRC E7BFBF9A
     Copy CRC E7BFBF9A
     Accurately ripped (confidence 2)  [210B0B29]  (AR v2)
     Copy OK
Track  2
     Filename C:\EAC\Various Artists - 2002 - Absolute Rock Classics 2\Disc 1\02  - Van Halen - Jump.wav
     Peak level 98.8 %
     Extraction speed 1.0 X
     Track quality 99.9 %
     Test CRC C6232A72
     Copy CRC C6232A72
     Accurately ripped (confidence 2)  [86E6E55F]  (AR v2)
     Copy OK
Track  3
     Filename C:\EAC\Various Artists - 2002 - Absolute Rock Classics 2\Disc 1\03  - ZZ Top - Gimme All Your Loving.wav
     Peak level 98.8 %
     Extraction speed 1.3 X
     Track quality 100.0 %
     Test CRC BF566C85
     Copy CRC BF566C85
     Accurately ripped (confidence 2)  [FC099CEB]  (AR v2)
     Copy OK
Track  4
     Filename C:\EAC\Various Artists - 2002 - Absolute Rock Classics 2\Disc 1\04  - Twisted Sisters - I Wanna Rock.wav
     Peak level 98.8 %
     Extraction speed 1.1 X
     Track quality 99.9 %
     Test CRC E76903AB
     Copy CRC E76903AB
     Accurately ripped (confidence 2)  [09FFD662]  (AR v2)
     Copy OK
Track  5
     Filename C:\EAC\Various Artists - 2002 - Absolute Rock Classics 2\Disc 1\05  - Alice Cooper - Poison.wav
     Peak level 98.8 %
     Extraction speed 1.3 X
     Track quality 99.9 %
     Test CRC 9EEF21D2
     Copy CRC 9EEF21D2
     Accurately ripped (confidence 2)  [B756F5B0]  (AR v2)
     Copy OK
Track  6
     Filename C:\EAC\Various Artists - 2002 - Absolute Rock Classics 2\Disc 1\06  - T. Rex - 20th Century Boy.wav
     Peak level 98.8 %
     Extraction speed 1.4 X
     Track quality 99.9 %
     Test CRC 31636D92
     Copy CRC 31636D92
     Accurately ripped (confidence 2)  [199446CB]  (AR v2)
     Copy OK
Track  7
     Filename C:\EAC\Various Artists - 2002 - Absolute Rock Classics 2\Disc 1\07  - Sweet - Fox On The Run.wav
     Peak level 98.8 %
     Extraction speed 1.4 X
     Track quality 99.9 %
     Test CRC 5BF69A2C
     Copy CRC 5BF69A2C
     Accurately ripped (confidence 2)  [25457B07]  (AR v2)
     Copy OK
Track  8
     Filename C:\EAC\Various Artists - 2002 - Absolute Rock Classics 2\Disc 1\08  - David Bowie - Suffragette City.wav
     Peak level 95.1 %
     Extraction speed 1.7 X
     Track quality 100.0 %
     Test CRC 7C272D19
     Copy CRC 7C272D19
     Accurately ripped (confidence 2)  [D6E7EE7A]  (AR v2)
     Copy OK
Track  9
     Filename C:\EAC\Various Artists - 2002 - Absolute Rock Classics 2\Disc 1\09  - Toto - Hold The Line.wav
     Peak level 98.8 %
     Extraction speed 1.8 X
     Track quality 100.0 %
     Test CRC 4DBB7F18
     Copy CRC 4DBB7F18
     Accurately ripped (confidence 2)  [22425551]  (AR v2)
     Copy OK
Track 10
     Filename C:\EAC\Various Artists - 2002 - Absolute Rock Classics 2\Disc 1\10  - Status Quo - Rockin' All Over The World.wav
     Peak level 100.0 %
     Extraction speed 1.8 X
     Track quality 100.0 %
     Test CRC B580CB78
     Copy CRC B580CB78
     Accurately ripped (confidence 3)  [A1D4A08B]  (AR v2)
     Copy OK
Track 11
     Filename C:\EAC\Various Artists - 2002 - Absolute Rock Classics 2\Disc 1\11  - Free - All Right Now.wav
     Peak level 98.8 %
     Extraction speed 2.0 X
     Track quality 100.0 %
     Test CRC 4C45264C
     Copy CRC 4C45264C
     Accurately ripped (confidence 2)  [03688FB2]  (AR v2)
     Copy OK
Track 12
     Filename C:\EAC\Various Artists - 2002 - Absolute Rock Classics 2\Disc 1\12  - Thin Lizzy - Whisky In The Jar.wav
     Peak level 98.8 %
     Extraction speed 2.0 X
     Track quality 100.0 %
     Test CRC BF22D41B
     Copy CRC BF22D41B
     Accurately ripped (confidence 2)  [3EF11847]  (AR v2)
     Copy OK
Track 13
     Filename C:\EAC\Various Artists - 2002 - Absolute Rock Classics 2\Disc 1\13  - Gary Moore - Over The Hills And Far Away.wav
     Peak level 98.8 %
     Extraction speed 2.2 X
     Track quality 100.0 %
     Test CRC 662B0FF1
     Copy CRC 662B0FF1
     Accurately ripped (confidence 2)  [7BBCA345]  (AR v2)
     Copy OK
Track 14
     Filename C:\EAC\Various Artists - 2002 - Absolute Rock Classics 2\Disc 1\14  - Judas Priest - Breaking The Law.wav
     Peak level 98.8 %
     Extraction speed 2.0 X
     Track quality 100.0 %
     Test CRC 5BBD1189
     Copy CRC 5BBD1189
     Accurately ripped (confidence 2)  [EA131D9F]  (AR v2)
     Copy OK
Track 15
     Filename C:\EAC\Various Artists - 2002 - Absolute Rock Classics 2\Disc 1\15  - Saxon - Princess Of The Night.wav
     Peak level 98.8 %
     Extraction speed 2.2 X
     Track quality 100.0 %
     Test CRC 4CD019DE
     Copy CRC 4CD019DE
     Accurately ripped (confidence 2)  [E256F591]  (AR v2)
     Copy OK
Track 16
     Filename C:\EAC\Various Artists - 2002 - Absolute Rock Classics 2\Disc 1\16  - Deep Purple - Strange Kind Of Woman.wav
     Peak level 98.8 %
     Extraction speed 2.3 X
     Track quality 100.0 %
     Test CRC D758281A
     Copy CRC D758281A
     Accurately ripped (confidence 2)  [008F0F01]  (AR v2)
     Copy OK
Track 17
     Filename C:\EAC\Various Artists - 2002 - Absolute Rock Classics 2\Disc 1\17  - Black Sabbath - Iron Man.wav
     Peak level 98.8 %
     Extraction speed 2.4 X
     Track quality 100.0 %
     Test CRC C375658A
     Copy CRC C375658A
     Accurately ripped (confidence 2)  [9CDB2CA5]  (AR v2)
     Copy OK
All tracks accurately ripped
No errors occurred
End of status report
Код:
Exact Audio Copy V1.3 from 2. September 2016
EAC extraction logfile from 10. September 2017, 16:20
Various Artists / Absolute Rock Classics 2
Used drive  : PLDS    DVD-RW DA8A6SH   Adapter: 1  ID: 0
Read mode               : Secure
Utilize accurate stream : Yes
Defeat audio cache      : Yes
Make use of C2 pointers : No
Read offset correction                      : 6
Overread into Lead-In and Lead-Out          : No
Fill up missing offset samples with silence : Yes
Delete leading and trailing silent blocks   : No
Null samples used in CRC calculations       : Yes
Used interface                              : Native Win32 interface for Win NT & 2000
Gap handling                                : Appended to previous track
Used output format              : User Defined Encoder
Selected bitrate                : 1024 kBit/s
Quality                         : High
Add ID3 tag                     : No
Command line compressor         : C:\Program Files (x86)\Exact Audio Copy\Flac\flac.exe
Additional command line options : -8 -V -T "ARTIST=%artist%" -T "TITLE=%title%" -T "ALBUM=%albumtitle%" -T "DATE=%year%" -T "TRACKNUMBER=%tracknr%" -T "GENRE=%genre%" -T "PERFORMER=%albuminterpret%" -T "COMPOSER=%composer%" %haslyrics%--tag-from-file=LYRICS="%lyricsfile%"%haslyrics% -T "ALBUMARTIST=%albumartist%" -T "DISCNUMBER=%cdnumber%" -T "TOTALDISCS=%totalcds%" -T "TOTALTRACKS=%numtracks%" -T "COMMENT=%comment%" %source% -o %dest%
TOC of the extracted CD
     Track |   Start  |  Length  | Start sector | End sector
    ---------------------------------------------------------
        1  |  0:00.00 |  2:46.72 |         0    |    12521
        2  |  2:46.72 |  3:30.24 |     12522    |    28295
        3  |  6:17.21 |  4:09.16 |     28296    |    46986
        4  | 10:26.37 |  3:58.65 |     46987    |    64901
        5  | 14:25.27 |  3:35.31 |     64902    |    81057
        6  | 18:00.58 |  4:18.04 |     81058    |   100411
        7  | 22:18.62 |  3:36.02 |    100412    |   116613
        8  | 25:54.64 |  3:10.41 |    116614    |   130904
        9  | 29:05.30 |  3:57.32 |    130905    |   148711
       10  | 33:02.62 |  2:15.37 |    148712    |   158873
       11  | 35:18.24 |  3:54.23 |    158874    |   176446
       12  | 39:12.47 |  3:10.57 |    176447    |   190753
       13  | 42:23.29 |  4:16.46 |    190754    |   209999
       14  | 46:40.00 |  3:35.06 |    210000    |   226130
       15  | 50:15.06 |  5:08.73 |    226131    |   249303
       16  | 55:24.04 |  2:56.25 |    249304    |   262528
       17  | 58:20.29 |  3:27.62 |    262529    |   278115
       18  | 61:48.16 |  3:04.03 |    278116    |   291918
Track  1
     Filename C:\EAC\Nytt\Various Artists - 2002 - Absolute Rock Classics 2\Disc 2\01  - Ramones - Sheena Is A Punk Rocker.wav
     Pre-gap length  0:00:02.00
     Peak level 98.8 %
     Extraction speed 0.8 X
     Track quality 99.9 %
     Test CRC B958663A
     Copy CRC B958663A
     Accurately ripped (confidence 2)  [C326CFD6]  (AR v2)
     Copy OK
Track  2
     Filename C:\EAC\Nytt\Various Artists - 2002 - Absolute Rock Classics 2\Disc 2\02  - Sex Pistols - Anarchy In The UK.wav
     Peak level 98.8 %
     Extraction speed 1.1 X
     Track quality 100.0 %
     Test CRC E90976C2
     Copy CRC E90976C2
     Accurately ripped (confidence 2)  [80320B54]  (AR v2)
     Copy OK
Track  3
     Filename C:\EAC\Nytt\Various Artists - 2002 - Absolute Rock Classics 2\Disc 2\03  - Billy Idol - White Wedding.wav
     Peak level 98.8 %
     Extraction speed 1.3 X
     Track quality 100.0 %
     Test CRC 946AF020
     Copy CRC 946AF020
     Accurately ripped (confidence 2)  [D6C93E6B]  (AR v2)
     Copy OK
Track  4
     Filename C:\EAC\Nytt\Various Artists - 2002 - Absolute Rock Classics 2\Disc 2\04  - The Knack - My Sharona.wav
     Peak level 98.8 %
     Extraction speed 1.4 X
     Track quality 100.0 %
     Test CRC DF458E68
     Copy CRC DF458E68
     Accurately ripped (confidence 2)  [B3DD159D]  (AR v2)
     Copy OK
Track  5
     Filename C:\EAC\Nytt\Various Artists - 2002 - Absolute Rock Classics 2\Disc 2\05  - Run DMC & Areosmith - Walk This Way.wav
     Peak level 98.8 %
     Extraction speed 1.4 X
     Track quality 100.0 %
     Test CRC 3FD2E0F4
     Copy CRC 3FD2E0F4
     Accurately ripped (confidence 2)  [F7D2766F]  (AR v2)
     Copy OK
Track  6
     Filename C:\EAC\Nytt\Various Artists - 2002 - Absolute Rock Classics 2\Disc 2\06  - Simple Minds - Don't You Forget About Me.wav
     Peak level 98.8 %
     Extraction speed 1.6 X
     Track quality 100.0 %
     Test CRC 2CDF1291
     Copy CRC 2CDF1291
     Accurately ripped (confidence 2)  [C21F05EA]  (AR v2)
     Copy OK
Track  7
     Filename C:\EAC\Nytt\Various Artists - 2002 - Absolute Rock Classics 2\Disc 2\07  - J. Geils Band - Centerfold.wav
     Peak level 98.8 %
     Extraction speed 1.6 X
     Track quality 100.0 %
     Test CRC B49A6621
     Copy CRC B49A6621
     Accurately ripped (confidence 2)  [EA88724D]  (AR v2)
     Copy OK
Track  8
     Filename C:\EAC\Nytt\Various Artists - 2002 - Absolute Rock Classics 2\Disc 2\08  - Robert Palmer - Bad Case Of Loving You.wav
     Peak level 98.8 %
     Extraction speed 1.4 X
     Track quality 99.9 %
     Test CRC 78C1B928
     Copy CRC 78C1B928
     Accurately ripped (confidence 2)  [DF14ED39]  (AR v2)
     Copy OK
Track  9
     Filename C:\EAC\Nytt\Various Artists - 2002 - Absolute Rock Classics 2\Disc 2\09  - Roxy Music - Love Is The Drug.wav
     Peak level 98.8 %
     Extraction speed 1.8 X
     Track quality 100.0 %
     Test CRC 937BF75B
     Copy CRC 937BF75B
     Accurately ripped (confidence 2)  [01F42970]  (AR v2)
     Copy OK
Track 10
     Filename C:\EAC\Nytt\Various Artists - 2002 - Absolute Rock Classics 2\Disc 2\10  - Blondie - Denis.wav
     Peak level 98.8 %
     Extraction speed 1.7 X
     Track quality 100.0 %
     Test CRC D58A3AB9
     Copy CRC D58A3AB9
     Accurately ripped (confidence 2)  [51EA1A4D]  (AR v2)
     Copy OK
Track 11
     Filename C:\EAC\Nytt\Various Artists - 2002 - Absolute Rock Classics 2\Disc 2\11  - Suzi Quatro - 48 Crash.wav
     Peak level 98.8 %
     Extraction speed 1.9 X
     Track quality 100.0 %
     Test CRC E6CE12E9
     Copy CRC E6CE12E9
     Accurately ripped (confidence 2)  [E5FC8856]  (AR v2)
     Copy OK
Track 12
     Filename C:\EAC\Nytt\Various Artists - 2002 - Absolute Rock Classics 2\Disc 2\12  - Blue Öyster Club - Goin' Through The Motions.wav
     Peak level 98.8 %
     Extraction speed 1.9 X
     Track quality 100.0 %
     Test CRC 9CEE5831
     Copy CRC 9CEE5831
     Accurately ripped (confidence 2)  [CD71837F]  (AR v2)
     Copy OK
Track 13
     Filename C:\EAC\Nytt\Various Artists - 2002 - Absolute Rock Classics 2\Disc 2\13  - Rainbow - Long Live Rock'n'Roll.wav
     Peak level 98.8 %
     Extraction speed 1.8 X
     Track quality 99.9 %
     Test CRC 14968248
     Copy CRC 14968248
     Accurately ripped (confidence 2)  [DBCB1E5B]  (AR v2)
     Copy OK
Track 14
     Filename C:\EAC\Nytt\Various Artists - 2002 - Absolute Rock Classics 2\Disc 2\14  - Nazareth - Broken Down Angel.wav
     Peak level 98.8 %
     Extraction speed 2.1 X
     Track quality 100.0 %
     Test CRC 609BE239
     Copy CRC 609BE239
     Accurately ripped (confidence 2)  [C540CB2C]  (AR v2)
     Copy OK
Track 15
     Filename C:\EAC\Nytt\Various Artists - 2002 - Absolute Rock Classics 2\Disc 2\15  - Iggy Pop - Lust For Life.wav
     Peak level 98.8 %
     Extraction speed 2.2 X
     Track quality 100.0 %
     Test CRC 98CF3107
     Copy CRC 98CF3107
     Accurately ripped (confidence 2)  [602E47A7]  (AR v2)
     Copy OK
Track 16
     Filename C:\EAC\Nytt\Various Artists - 2002 - Absolute Rock Classics 2\Disc 2\16  - Gary Glitter - Rock'n'Roll.wav
     Peak level 98.8 %
     Extraction speed 2.1 X
     Track quality 100.0 %
     Test CRC 9DD044D4
     Copy CRC 9DD044D4
     Accurately ripped (confidence 2)  [80B396ED]  (AR v2)
     Copy OK
Track 17
     Filename C:\EAC\Nytt\Various Artists - 2002 - Absolute Rock Classics 2\Disc 2\17  - Mott The Hoople - All The Young Dudes.wav
     Peak level 98.8 %
     Extraction speed 1.9 X
     Track quality 99.9 %
     Test CRC C62B9E32
     Copy CRC C62B9E32
     Accurately ripped (confidence 2)  [5C4A73C1]  (AR v2)
     Copy OK
Track 18
     Filename C:\EAC\Nytt\Various Artists - 2002 - Absolute Rock Classics 2\Disc 2\18  - Pretenders - Brass In Pocket.wav
     Peak level 98.8 %
     Extraction speed 2.2 X
     Track quality 100.0 %
     Test CRC B7AB17E3
     Copy CRC B7AB17E3
     Accurately ripped (confidence 2)  [6D138678]  (AR v2)
     Copy OK
All tracks accurately ripped
No errors occurred
End of status report
Код:
REM GENRE Rock
REM DATE 2002
REM DISCID EE0F5411
REM COMMENT "ExactAudioCopy v1.3"
FILE "01  - Queen - Killer Queen.wav" WAVE
  TRACK 01 AUDIO
    INDEX 01 00:00:00
FILE "02  - Van Halen - Jump.wav" WAVE
  TRACK 02 AUDIO
    INDEX 01 00:00:00
FILE "03  - ZZ Top - Gimme All Your Loving.wav" WAVE
  TRACK 03 AUDIO
    INDEX 01 00:00:00
FILE "04  - Twisted Sisters - I Wanna Rock.wav" WAVE
  TRACK 04 AUDIO
    INDEX 01 00:00:00
FILE "05  - Alice Cooper - Poison.wav" WAVE
  TRACK 05 AUDIO
    INDEX 01 00:00:00
FILE "06  - T. Rex - 20th Century Boy.wav" WAVE
  TRACK 06 AUDIO
    INDEX 01 00:00:00
FILE "07  - Sweet - Fox On The Run.wav" WAVE
  TRACK 07 AUDIO
    INDEX 01 00:00:00
FILE "08  - David Bowie - Suffragette City.wav" WAVE
  TRACK 08 AUDIO
    INDEX 01 00:00:00
FILE "09  - Toto - Hold The Line.wav" WAVE
  TRACK 09 AUDIO
    INDEX 01 00:00:00
FILE "10  - Status Quo - Rockin' All Over The World.wav" WAVE
  TRACK 10 AUDIO
    INDEX 01 00:00:00
FILE "11  - Free - All Right Now.wav" WAVE
  TRACK 11 AUDIO
    INDEX 01 00:00:00
FILE "12  - Thin Lizzy - Whisky In The Jar.wav" WAVE
  TRACK 12 AUDIO
    INDEX 01 00:00:00
FILE "13  - Gary Moore - Over The Hills And Far Away.wav" WAVE
  TRACK 13 AUDIO
    INDEX 01 00:00:00
FILE "14  - Judas Priest - Breaking The Law.wav" WAVE
  TRACK 14 AUDIO
    INDEX 01 00:00:00
FILE "15  - Saxon - Princess Of The Night.wav" WAVE
  TRACK 15 AUDIO
    INDEX 01 00:00:00
FILE "16  - Deep Purple - Strange Kind Of Woman.wav" WAVE
  TRACK 16 AUDIO
    INDEX 01 00:00:00
FILE "17  - Black Sabbath - Iron Man.wav" WAVE
  TRACK 17 AUDIO
    INDEX 01 00:00:00
Код:
REM GENRE Rock
REM DATE 2002
REM DISCID F30F3412
REM COMMENT "ExactAudioCopy v1.3"
FILE "01  - Ramones - Sheena Is A Punk Rocker.wav" WAVE
  TRACK 01 AUDIO
    INDEX 01 00:00:00
FILE "02  - Sex Pistols - Anarchy In The UK.wav" WAVE
  TRACK 02 AUDIO
    INDEX 01 00:00:00
FILE "03  - Billy Idol - White Wedding.wav" WAVE
  TRACK 03 AUDIO
    INDEX 01 00:00:00
FILE "04  - The Knack - My Sharona.wav" WAVE
  TRACK 04 AUDIO
    INDEX 01 00:00:00
FILE "05  - Run DMC & Aerosmith - Walk This Way.wav" WAVE
  TRACK 05 AUDIO
    INDEX 01 00:00:00
FILE "06  - Simple Minds - Don't You Forget About Me.wav" WAVE
  TRACK 06 AUDIO
    INDEX 01 00:00:00
FILE "07  - The J. Geils Band - Centerfold.wav" WAVE
  TRACK 07 AUDIO
    INDEX 01 00:00:00
FILE "08  - Robert Palmer - Bad Case Of Loving You.wav" WAVE
  TRACK 08 AUDIO
    INDEX 01 00:00:00
FILE "09  - Roxy Music - Love Is The Drug.wav" WAVE
  TRACK 09 AUDIO
    INDEX 01 00:00:00
FILE "10  - Blondie - Denis.wav" WAVE
  TRACK 10 AUDIO
    INDEX 01 00:00:00
FILE "11  - Suzi Quatro - 48 Crash.wav" WAVE
  TRACK 11 AUDIO
    INDEX 01 00:00:00
FILE "12  - Blue Цyster Cult - Goin' Through The Motions.wav" WAVE
  TRACK 12 AUDIO
    INDEX 01 00:00:00
FILE "13  - Rainbow - Long Live Rock'n'Roll.wav" WAVE
  TRACK 13 AUDIO
    INDEX 01 00:00:00
FILE "14  - Nazareth - Broken Down Angel.wav" WAVE
  TRACK 14 AUDIO
    INDEX 01 00:00:00
FILE "15  - Iggy Pop - Lust For Life.wav" WAVE
  TRACK 15 AUDIO
    INDEX 01 00:00:00
FILE "16  - Gary Glitter - Rock'n'Roll.wav" WAVE
  TRACK 16 AUDIO
    INDEX 01 00:00:00
FILE "17  - Mott The Hoople - All The Young Dudes.wav" WAVE
  TRACK 17 AUDIO
    INDEX 01 00:00:00
FILE "18  - The Pretenders - Brass In Pocket.wav" WAVE
  TRACK 18 AUDIO
    INDEX 01 00:00:00
--
Download / Скачать

Хотите скачать бесплатно? Зарегистрируйтесь на сайте (ссылка на регистрацию). Pirat.ca - самый быстрый торрент трекер в рунете!

Как скачивать  ·   Что такое торрент  ·   Рейтинг и ограничения

Показать сообщения:    
Ответить на тему

Текущее время: Сегодня 09:10

Часовой пояс: GMT + 4



Вы не можете начинать темы
Вы не можете отвечать на сообщения
Вы не можете редактировать свои сообщения
Вы не можете удалять свои сообщения
Вы не можете голосовать в опросах
Вы не можете прикреплять файлы к сообщениям
Вы не можете скачивать файлы

Майнать ▼