(Classic Rock, Glam) T.Rex - Gold (3CD) - 2018 [FLAC, image +.cue, lossless]

Ответить на тему
 
Автор
Сообщение

Пост 17-Сен-2018 11:28

[Q] 

sergej644

-T.Rex - Gold (3CD)--
Год издания: 2018
Страна: UK
Жанр: Classic Rock, Glam
Продолжительность: 02:23:49-Лейбл издания: Crimson
Страна-выпуска диска: EU
Номер по каталогу: CRIMCD616-Формат: FLAC
Битрейт аудио: Lossless
Тип рипа: image +.cue
Наличие сканов в содержимом раздачи: да
-

01. Debora (3:09)
02. One Inch Rock (1:47)
03. King Of The Rumbling Spires (2:09)
04. By The Light Of A Magical Moon (2:50)
05. Ride A White Swan (2:15)
06. Hot Love (4:56)
07. Get It On (4:24)
08. Cosmic Dancer (4:28)
09. Life's A Gas (2:24)
10. Jeepster (4:09)
11. Is It Love (2:36)
12. The King Of The Mountain Cometh (3:53)
13. Woodland Rock (2:28)
14. There Was A Time - Raw Ramp - Electric BoogieE (5:15)
15. Lean Woman Blues (2:59)

01. Telegram Sam (3:46)
02. Metal Guru (2:28)
03. Children Of The Revolution (2:29)
04. Solid Gold Easy Action (2:22)
05. 20th Century Boy (3:40)
06. The Groover (3:23)
07. Truck On Tyke (3:08)
08. Teenage Dream (4:59)
09. Light Of Love (3:16)
10. New York City (3:57)
11. Dreamy Lady (2:54)
12. London Boys (2:22)
13. I Love To Boogie (2:16)
14. The Soul Of My Suit (2:38)
15. Celebrate Summer (2:37)

01. Born To Boogie (2:05)
02. Cadilac (3:52)
03. Thunderwing (3:46)
04. The Slider (3:23)
05. Life Is Strange (2:32)
06. Venus Loon (3:03)
07. Till Dawn (3:03)
08. Zip Gun Boogie (3:21)
09. Solid Baby (2:38)
10. Chrome Sitar (3:15)
11. Laser Love (3:37)
12. All Alone (2:50)
13. Life's An Elevator (2:26)
14. Crimson Moon (3:24)
15. Dandy In The Underworld (4:34)
-
Код:
Exact Audio Copy V1.0 beta 6 from 9. April 2015
EAC extraction logfile from 14. September 2018, 14:45
T. Rex / Gold [CD1]
Used drive  : ATAPI   iHAS122   C   Adapter: 1  ID: 0
Read mode               : Secure
Utilize accurate stream : Yes
Defeat audio cache      : Yes
Make use of C2 pointers : No
Read offset correction                      : 6
Overread into Lead-In and Lead-Out          : No
Fill up missing offset samples with silence : Yes
Delete leading and trailing silent blocks   : No
Null samples used in CRC calculations       : Yes
Used interface                              : Native Win32 interface for Win NT & 2000
Used output format : Internal WAV Routines
Sample format      : 44.100 Hz; 16 Bit; Stereo
TOC of the extracted CD
     Track |   Start  |  Length  | Start sector | End sector
    ---------------------------------------------------------
        1  |  0:00.00 |  3:08.70 |         0    |    14169
        2  |  3:08.70 |  1:47.34 |     14170    |    22228
        3  |  4:56.29 |  2:09.21 |     22229    |    31924
        4  |  7:05.50 |  2:50.08 |     31925    |    44682
        5  |  9:55.58 |  2:14.48 |     44683    |    54780
        6  | 12:10.31 |  4:56.31 |     54781    |    77011
        7  | 17:06.62 |  4:23.49 |     77012    |    96785
        8  | 21:30.36 |  4:28.14 |     96786    |   116899
        9  | 25:58.50 |  2:23.63 |    116900    |   127687
       10  | 28:22.38 |  4:09.19 |    127688    |   146381
       11  | 32:31.57 |  2:36.27 |    146382    |   158108
       12  | 35:08.09 |  3:52.50 |    158109    |   175558
       13  | 39:00.59 |  2:28.18 |    175559    |   186676
       14  | 41:29.02 |  5:15.16 |    186677    |   210317
       15  | 46:44.18 |  2:58.74 |    210318    |   223741
Range status and errors
Selected range
     Filename C:\Users\London\Desktop\T. Rex - Gold [CD1].wav
     Peak level 95.4 %
     Extraction speed 8.3 X
     Range quality 100.0 %
     Test CRC 6BCF9F89
     Copy CRC 6BCF9F89
     Copy OK
No errors occurred
AccurateRip summary
Track  1  not present in database
Track  2  not present in database
Track  3  not present in database
Track  4  not present in database
Track  5  not present in database
Track  6  not present in database
Track  7  not present in database
Track  8  not present in database
Track  9  not present in database
Track 10  not present in database
Track 11  not present in database
Track 12  not present in database
Track 13  not present in database
Track 14  not present in database
Track 15  not present in database
None of the tracks are present in the AccurateRip database
End of status report
Код:
Exact Audio Copy V1.0 beta 6 from 9. April 2015
EAC extraction logfile from 14. September 2018, 15:03
T. Rex / Gold [CD2]
Used drive  : ATAPI   iHAS122   C   Adapter: 1  ID: 0
Read mode               : Secure
Utilize accurate stream : Yes
Defeat audio cache      : Yes
Make use of C2 pointers : No
Read offset correction                      : 6
Overread into Lead-In and Lead-Out          : No
Fill up missing offset samples with silence : Yes
Delete leading and trailing silent blocks   : No
Null samples used in CRC calculations       : Yes
Used interface                              : Native Win32 interface for Win NT & 2000
Used output format : Internal WAV Routines
Sample format      : 44.100 Hz; 16 Bit; Stereo
TOC of the extracted CD
     Track |   Start  |  Length  | Start sector | End sector
    ---------------------------------------------------------
        1  |  0:00.00 |  3:45.52 |         0    |    16926
        2  |  3:45.52 |  2:28.37 |     16927    |    28063
        3  |  6:14.14 |  2:29.14 |     28064    |    39252
        4  |  8:43.28 |  2:22.14 |     39253    |    49916
        5  | 11:05.42 |  3:40.05 |     49917    |    66421
        6  | 14:45.47 |  3:23.18 |     66422    |    81664
        7  | 18:08.65 |  3:08.31 |     81665    |    95795
        8  | 21:17.21 |  4:58.52 |     95796    |   118197
        9  | 26:15.73 |  3:16.25 |    118198    |   132922
       10  | 29:32.23 |  3:57.16 |    132923    |   150713
       11  | 33:29.39 |  2:53.54 |    150714    |   163742
       12  | 36:23.18 |  2:21.44 |    163743    |   174361
       13  | 38:44.62 |  2:15.51 |    174362    |   184537
       14  | 41:00.38 |  2:38.27 |    184538    |   196414
       15  | 43:38.65 |  2:37.04 |    196415    |   208193
Range status and errors
Selected range
     Filename C:\Users\London\Desktop\T. Rex - Gold [CD2].wav
     Peak level 94.3 %
     Extraction speed 8.1 X
     Range quality 100.0 %
     Test CRC 7EFD176B
     Copy CRC 7EFD176B
     Copy OK
No errors occurred
AccurateRip summary
Track  1  not present in database
Track  2  not present in database
Track  3  not present in database
Track  4  not present in database
Track  5  not present in database
Track  6  not present in database
Track  7  not present in database
Track  8  not present in database
Track  9  not present in database
Track 10  not present in database
Track 11  not present in database
Track 12  not present in database
Track 13  not present in database
Track 14  not present in database
Track 15  not present in database
None of the tracks are present in the AccurateRip database
End of status report
Код:
Exact Audio Copy V1.0 beta 6 from 9. April 2015
EAC extraction logfile from 14. September 2018, 14:28
T. Rex / Gold [CD3]
Used drive  : ATAPI   iHAS122   C   Adapter: 1  ID: 0
Read mode               : Secure
Utilize accurate stream : Yes
Defeat audio cache      : Yes
Make use of C2 pointers : No
Read offset correction                      : 6
Overread into Lead-In and Lead-Out          : No
Fill up missing offset samples with silence : Yes
Delete leading and trailing silent blocks   : No
Null samples used in CRC calculations       : Yes
Used interface                              : Native Win32 interface for Win NT & 2000
Used output format : Internal WAV Routines
Sample format      : 44.100 Hz; 16 Bit; Stereo
TOC of the extracted CD
     Track |   Start  |  Length  | Start sector | End sector
    ---------------------------------------------------------
        1  |  0:00.00 |  2:05.09 |         0    |     9383
        2  |  2:05.09 |  3:52.09 |      9384    |    26792
        3  |  5:57.18 |  3:46.16 |     26793    |    43758
        4  |  9:43.34 |  3:22.59 |     43759    |    58967
        5  | 13:06.18 |  2:32.21 |     58968    |    70388
        6  | 15:38.39 |  3:02.54 |     70389    |    84092
        7  | 18:41.18 |  3:03.35 |     84093    |    97852
        8  | 21:44.53 |  3:20.48 |     97853    |   112900
        9  | 25:05.26 |  2:37.69 |    112901    |   124744
       10  | 27:43.20 |  3:15.32 |    124745    |   139401
       11  | 30:58.52 |  3:37.10 |    139402    |   155686
       12  | 34:35.62 |  2:50.19 |    155687    |   168455
       13  | 37:26.06 |  2:25.50 |    168456    |   179380
       14  | 39:51.56 |  3:24.26 |    179381    |   194706
       15  | 43:16.07 |  4:33.48 |    194707    |   215229
Range status and errors
Selected range
     Filename C:\Users\London\Desktop\T. Rex - Gold [CD3].wav
     Peak level 96.1 %
     Extraction speed 8.2 X
     Range quality 100.0 %
     Test CRC B6B8330C
     Copy CRC B6B8330C
     Copy OK
No errors occurred
AccurateRip summary
Track  1  not present in database
Track  2  not present in database
Track  3  not present in database
Track  4  not present in database
Track  5  not present in database
Track  6  not present in database
Track  7  not present in database
Track  8  not present in database
Track  9  not present in database
Track 10  not present in database
Track 11  not present in database
Track 12  not present in database
Track 13  not present in database
Track 14  not present in database
Track 15  not present in database
None of the tracks are present in the AccurateRip database
End of status report
Код:
REM GENRE Rock
REM DATE 2018
REM DISCID BF0BA70F
REM COMMENT "ExactAudioCopy v1.0b6"
PERFORMER "T. Rex"
TITLE "Gold [CD1]"
FILE "T. Rex - Gold [CD1].flac" WAVE
  TRACK 01 AUDIO
    TITLE "Debora"
    PERFORMER "Tyrannosaurus Rex"
    FLAGS DCP
    INDEX 01 00:00:00
  TRACK 02 AUDIO
    TITLE "One Inch Rock"
    PERFORMER "Tyrannosaurus Rex"
    FLAGS DCP
    INDEX 00 03:07:69
    INDEX 01 03:08:70
  TRACK 03 AUDIO
    TITLE "King Of The Rumbling Spires"
    PERFORMER "Tyrannosaurus Rex"
    FLAGS DCP
    INDEX 00 04:55:19
    INDEX 01 04:56:29
  TRACK 04 AUDIO
    TITLE "By The Light Of A Magical Moon"
    PERFORMER "T. Rex"
    FLAGS DCP
    INDEX 00 07:04:19
    INDEX 01 07:05:50
  TRACK 05 AUDIO
    TITLE "Ride A White Swan"
    PERFORMER "T. Rex"
    FLAGS DCP
    INDEX 00 09:54:29
    INDEX 01 09:55:58
  TRACK 06 AUDIO
    TITLE "Hot Love"
    PERFORMER "T. Rex"
    FLAGS DCP
    INDEX 00 12:09:01
    INDEX 01 12:10:31
  TRACK 07 AUDIO
    TITLE "Get It On"
    PERFORMER "T. Rex"
    FLAGS DCP
    INDEX 00 17:05:40
    INDEX 01 17:06:62
  TRACK 08 AUDIO
    TITLE "Cosmic Dancer"
    PERFORMER "T. Rex"
    FLAGS DCP
    INDEX 00 21:28:73
    INDEX 01 21:30:36
  TRACK 09 AUDIO
    TITLE "Life's A Gas"
    PERFORMER "T. Rex"
    FLAGS DCP
    INDEX 00 25:57:08
    INDEX 01 25:58:50
  TRACK 10 AUDIO
    TITLE "Jeepster"
    PERFORMER "T. Rex"
    FLAGS DCP
    INDEX 00 28:21:12
    INDEX 01 28:22:38
  TRACK 11 AUDIO
    TITLE "Is It Love"
    PERFORMER "T. Rex"
    FLAGS DCP
    INDEX 00 32:30:20
    INDEX 01 32:31:57
  TRACK 12 AUDIO
    TITLE "The King Of The Mountain Cometh"
    PERFORMER "T. Rex"
    FLAGS DCP
    INDEX 00 35:06:32
    INDEX 01 35:08:09
  TRACK 13 AUDIO
    TITLE "Woodland Rock"
    PERFORMER "T. Rex"
    FLAGS DCP
    INDEX 00 38:59:42
    INDEX 01 39:00:59
  TRACK 14 AUDIO
    TITLE "There Was A Time  - Raw Ramp - Electric BoogieE"
    PERFORMER "T. Rex"
    FLAGS DCP
    INDEX 00 41:27:47
    INDEX 01 41:29:02
  TRACK 15 AUDIO
    TITLE "Lean Woman Blues"
    PERFORMER "T. Rex"
    FLAGS DCP
    INDEX 00 46:42:50
    INDEX 01 46:44:18
Код:
REM GENRE Rock
REM DATE 2018
REM DISCID D00AD70F
REM COMMENT "ExactAudioCopy v1.0b6"
PERFORMER "T. Rex"
TITLE "Gold [CD2]"
FILE "T. Rex - Gold [CD2].flac" WAVE
  TRACK 01 AUDIO
    TITLE "Telegram Sam"
    PERFORMER "T. Rex"
    FLAGS DCP
    INDEX 01 00:00:00
  TRACK 02 AUDIO
    TITLE "Metal Guru"
    PERFORMER "T. Rex"
    FLAGS DCP
    INDEX 00 03:44:34
    INDEX 01 03:45:52
  TRACK 03 AUDIO
    TITLE "Children Of The Revolution"
    PERFORMER "T. Rex"
    FLAGS DCP
    INDEX 00 06:13:09
    INDEX 01 06:14:14
  TRACK 04 AUDIO
    TITLE "Solid Gold Easy Action"
    PERFORMER "T. Rex"
    FLAGS DCP
    INDEX 00 08:42:31
    INDEX 01 08:43:28
  TRACK 05 AUDIO
    TITLE "20th Century Boy"
    PERFORMER "T. Rex"
    FLAGS DCP
    INDEX 00 11:03:50
    INDEX 01 11:05:42
  TRACK 06 AUDIO
    TITLE "The Groover"
    PERFORMER "T. Rex"
    FLAGS DCP
    INDEX 00 14:44:40
    INDEX 01 14:45:47
  TRACK 07 AUDIO
    TITLE "Truck On Tyke"
    PERFORMER "T. Rex"
    FLAGS DCP
    INDEX 00 18:07:19
    INDEX 01 18:08:65
  TRACK 08 AUDIO
    TITLE "Teenage Dream"
    PERFORMER "T. Rex"
    FLAGS DCP
    INDEX 00 21:16:04
    INDEX 01 21:17:21
  TRACK 09 AUDIO
    TITLE "Light Of Love"
    PERFORMER "T. Rex"
    FLAGS DCP
    INDEX 00 26:14:19
    INDEX 01 26:15:73
  TRACK 10 AUDIO
    TITLE "New York City"
    PERFORMER "T. Rex"
    FLAGS DCP
    INDEX 00 29:30:70
    INDEX 01 29:32:23
  TRACK 11 AUDIO
    TITLE "Dreamy Lady"
    PERFORMER "T. Rex"
    FLAGS DCP
    INDEX 00 33:28:12
    INDEX 01 33:29:39
  TRACK 12 AUDIO
    TITLE "London Boys"
    PERFORMER "T. Rex"
    FLAGS DCP
    INDEX 00 36:21:64
    INDEX 01 36:23:18
  TRACK 13 AUDIO
    TITLE "I Love To Boogie"
    PERFORMER "T. Rex"
    FLAGS DCP
    INDEX 00 38:43:35
    INDEX 01 38:44:62
  TRACK 14 AUDIO
    TITLE "The Soul Of My Suit"
    PERFORMER "T. Rex"
    FLAGS DCP
    INDEX 00 40:59:06
    INDEX 01 41:00:38
  TRACK 15 AUDIO
    TITLE "Celebrate Summer"
    PERFORMER "T. Rex"
    FLAGS DCP
    INDEX 00 43:37:43
    INDEX 01 43:38:65
Код:
REM GENRE Rock
REM DATE 2018
REM DISCID DB0B350F
REM COMMENT "ExactAudioCopy v1.0b6"
PERFORMER "T. Rex"
TITLE "Gold [CD3]"
FILE "T. Rex - Gold [CD3].flac" WAVE
  TRACK 01 AUDIO
    TITLE "Born To Boogie"
    PERFORMER "T. Rex"
    FLAGS DCP
    INDEX 01 00:00:00
  TRACK 02 AUDIO
    TITLE "Cadilac"
    PERFORMER "T. Rex"
    FLAGS DCP
    INDEX 00 02:04:06
    INDEX 01 02:05:09
  TRACK 03 AUDIO
    TITLE "Thunderwing"
    PERFORMER "T. Rex"
    FLAGS DCP
    INDEX 00 05:55:72
    INDEX 01 05:57:18
  TRACK 04 AUDIO
    TITLE "The Slider"
    PERFORMER "T. Rex"
    FLAGS DCP
    INDEX 00 09:42:07
    INDEX 01 09:43:34
  TRACK 05 AUDIO
    TITLE "Life Is Strange"
    PERFORMER "T. Rex"
    FLAGS DCP
    INDEX 00 13:04:18
    INDEX 01 13:06:18
  TRACK 06 AUDIO
    TITLE "Venus Loon"
    PERFORMER "T. Rex"
    FLAGS DCP
    INDEX 00 15:36:67
    INDEX 01 15:38:39
  TRACK 07 AUDIO
    TITLE "Till Dawn"
    PERFORMER "T. Rex"
    FLAGS DCP
    INDEX 00 18:39:47
    INDEX 01 18:41:18
  TRACK 08 AUDIO
    TITLE "Zip Gun Boogie"
    PERFORMER "T. Rex"
    FLAGS DCP
    INDEX 00 21:43:15
    INDEX 01 21:44:53
  TRACK 09 AUDIO
    TITLE "Solid Baby"
    PERFORMER "T. Rex"
    FLAGS DCP
    INDEX 00 25:03:59
    INDEX 01 25:05:26
  TRACK 10 AUDIO
    TITLE "Chrome Sitar"
    PERFORMER "T. Rex"
    FLAGS DCP
    INDEX 00 27:42:01
    INDEX 01 27:43:20
  TRACK 11 AUDIO
    TITLE "Laser Love"
    PERFORMER "T. Rex"
    FLAGS DCP
    INDEX 00 30:57:34
    INDEX 01 30:58:52
  TRACK 12 AUDIO
    TITLE "All Alone"
    PERFORMER "T. Rex"
    FLAGS DCP
    INDEX 00 34:34:52
    INDEX 01 34:35:62
  TRACK 13 AUDIO
    TITLE "Life's An Elevator"
    PERFORMER "T. Rex"
    FLAGS DCP
    INDEX 00 37:24:69
    INDEX 01 37:26:06
  TRACK 14 AUDIO
    TITLE "Crimson Moon"
    PERFORMER "T. Rex"
    FLAGS DCP
    INDEX 00 39:50:21
    INDEX 01 39:51:56
  TRACK 15 AUDIO
    TITLE "Dandy In The Underworld"
    PERFORMER "T. Rex"
    FLAGS DCP
    INDEX 00 43:14:58
    INDEX 01 43:16:07
- --
Download / Скачать

Хотите скачать бесплатно? Зарегистрируйтесь на сайте (ссылка на регистрацию). Pirat.ca - самый быстрый торрент трекер в рунете!

Как скачивать  ·   Что такое торрент  ·   Рейтинг и ограничения

Показать сообщения:    
Ответить на тему

Текущее время: Сегодня 22:08

Часовой пояс: GMT + 4



Вы не можете начинать темы
Вы не можете отвечать на сообщения
Вы не можете редактировать свои сообщения
Вы не можете удалять свои сообщения
Вы не можете голосовать в опросах
Вы не можете прикреплять файлы к сообщениям
Вы не можете скачивать файлы

Майнать ▼