Феи: Загадка пиратского острова / The Pirate Fairy (Пегги Холмс / Peggy Holmes) [2014 г., мультфильм, фэнтези, детский, приключения, BDRip-AVC] Dub [лицензия] + Original (Eng) + Sub (Rus, Eng) [Jolly Roger]

Ответить на тему
 
Автор
Сообщение

Пост 31-Мар-2014 19:36

[Q] 

erchine

-Феи: Загадка пиратского острова / The Pirate Fairy- Год выпуска: 2014 г.
Производство: США
Жанр: мультфильм, фэнтези, детский, приключения
Продолжительность: 01:18:08
Перевод: Профессиональный (полное дублирование) [лицензия]
Оригинальный аудиопоток: английский
Режиссер: Пегги Холмс / Peggy Holmes
В ролях: Кристина Хендрикс, Мэй Уитман, Том Хиддлстон, Памела Адлон, Анджела Бартис, Меган Хилти, Люси Лью, Рэйвен, Джим Каммингс, Кевин Майкл Ричардсон
Описание: История о Зарине, смышленой и амбициозной фее, собирающей пыльцу растений. Все начинается с того, что она похищает волшебную пыльцу фей… Качество видео: BDRip-AVC
Контейнер: MKV
Видео кодек: H.264
Аудио кодек: AC3
Видео: MPEG4 Video (H264) 1024x576 23.976fps 2010 Kbps
Аудио 1: Dolby AC3 48000Hz 6 ch 448 Kbps / Русский
Аудио 2: Dolby AC3 48000Hz stereo 192 Kbps / Русский
Субтитры: русские, английские (отключаемые)
x264 [info]: using SAR=1/1
x264 [info]: using cpu capabilities: MMX2 SSE2Fast SSSE3 Cache64 SlowShuffle
x264 [info]: profile High, level 4.1
x264 [info]: frame I:1217 Avg QP:14.17 size:105956
x264 [info]: frame P:30882 Avg QP:19.82 size: 18512
x264 [info]: frame B:80236 Avg QP:23.85 size: 5936
x264 [info]: consecutive B-frames: 4.4% 5.0% 19.6% 34.4% 16.6% 15.1% 2.3% 1.5% 1.0%
x264 [info]: mb I I16..4: 11.0% 43.8% 45.2%
x264 [info]: mb P I16..4: 3.9% 12.1% 3.5% P16..4: 32.3% 7.7% 5.8% 1.1% 0.3% skip:33.3%
x264 [info]: mb B I16..4: 0.7% 2.0% 0.6% B16..8: 20.1% 6.0% 1.7% direct: 2.2% skip:66.8% L0:39.1% L1:42.1% BI:18.8%
x264 [info]: 8x8 transform intra:59.6% inter:55.1%
x264 [info]: direct mvs spatial:88.5% temporal:11.5%
x264 [info]: coded y,uvDC,uvAC intra: 69.3% 68.9% 38.9% inter: 11.4% 7.9% 2.3%
x264 [info]: i16 v,h,dc,p: 18% 19% 22% 41%
x264 [info]: i8 v,h,dc,ddl,ddr,vr,hd,vl,hu: 18% 19% 17% 6% 7% 8% 8% 8% 9%
x264 [info]: i4 v,h,dc,ddl,ddr,vr,hd,vl,hu: 17% 15% 17% 6% 10% 9% 9% 7% 9%
x264 [info]: i8c dc,h,v,p: 32% 29% 19% 20%
x264 [info]: Weighted P-Frames: Y:1.8% UV:1.2%
x264 [info]: ref P L0: 59.6% 9.5% 12.3% 6.3% 3.8% 4.1% 3.2% 1.2% 0.0%
x264 [info]: ref B L0: 81.5% 8.3% 5.4% 2.6% 1.6% 0.7%
x264 [info]: ref B L1: 94.3% 5.7%
x264 [info]: kb/s:2009.55
x264 [total]: encoded 112335 frames, 2.25 fps, 2009.55 kb/s
Общее
Уникальный идентификатор : 177999840046715310744926011720531612828 (0x85E985AF2CD6EAC087B28FD55782949C)
Полное имя : I:\The.Pirate.Fairy.2014.H.264.BDRip-AVC.JRG.mkv
Формат : Matroska
Версия формата : Version 4 / Version 2
Размер файла : 1,45 Гбайт
Продолжительность : 1 ч. 18 м.
Общий поток : 2652 Кбит/сек
Название фильма : The Jolly Roger Release Group by http://Pirat.CA
Дата кодирования : UTC 2014-05-11 07:10:44
Программа кодирования : mkvmerge v6.9.1 ('Blue Panther') 32bit built on Apr 18 2014 18:15:44
Библиотека кодирования : libebml v1.3.0 + libmatroska v1.4.1
Видео
Идентификатор : 1
Формат : AVC
Формат/Информация : Advanced Video Codec
Профиль формата : [email protected]
Параметр CABAC формата : Да
Параметр ReFrames формата : 7 кадров
Идентификатор кодека : V_MPEG4/ISO/AVC
Продолжительность : 1 ч. 18 м.
Битрейт : 2010 Кбит/сек
Ширина : 1024 пикселя
Высота : 576 пикселей
Соотношение сторон : 16:9
Режим частоты кадров : Постоянный
Частота кадров : 23,976 кадра/сек
Цветовое пространство : YUV
Субдискретизация насыщенности : 4:2:0
Битовая глубина : 8 бит
Тип развёртки : Прогрессивная
Бит/(Пиксели*Кадры) : 0.142
Размер потока : 1,07 Гбайт (74%)
Библиотека кодирования : x264 core 130 r2273 b3065e6
Настройки программы : cabac=1 / ref=7 / deblock=0:0:0 / analyse=0x3:0x133 / me=umh / subme=10 / psy=0 / mixed_ref=0 / me_range=24 / chroma_me=1 / trellis=2 / 8x8dct=1 / cqm=0 / deadzone=21,11 / fast_pskip=0 / chroma_qp_offset=0 / threads=3 / lookahead_threads=1 / sliced_threads=0 / nr=0 / decimate=1 / interlaced=0 / bluray_compat=0 / constrained_intra=0 / bframes=8 / b_pyramid=2 / b_adapt=2 / b_bias=0 / direct=3 / weightb=1 / open_gop=0 / weightp=2 / keyint=250 / keyint_min=23 / scenecut=40 / intra_refresh=0 / rc_lookahead=50 / rc=2pass / mbtree=1 / bitrate=2010 / ratetol=1.0 / qcomp=0.60 / qpmin=0 / qpmax=69 / qpstep=4 / cplxblur=20.0 / qblur=0.5 / ip_ratio=1.40 / aq=1:1.00
Default : Да
Forced : Нет
Аудио #1
Идентификатор : 2
Формат : AC-3
Формат/Информация : Audio Coding 3
Расширение режима : CM (complete main)
Параметр Endianness формата : Big
Идентификатор кодека : A_AC3
Продолжительность : 1 ч. 18 м.
Вид битрейта : Постоянный
Битрейт : 448 Кбит/сек
Каналы : 6 каналов
Расположение каналов : Front: L C R, Side: L R, LFE
Частота : 48,0 КГц
Битовая глубина : 16 бит
Метод сжатия : С потерями
Размер потока : 250 Мбайт (17%)
Язык : Russian
Default : Да
Forced : Нет
Аудио #2
Идентификатор : 3
Формат : AC-3
Формат/Информация : Audio Coding 3
Расширение режима : CM (complete main)
Параметр Endianness формата : Big
Идентификатор кодека : A_AC3
Продолжительность : 1 ч. 18 м.
Вид битрейта : Постоянный
Битрейт : 192 Кбит/сек
Каналы : 2 канала
Расположение каналов : Front: L R
Частота : 48,0 КГц
Битовая глубина : 16 бит
Метод сжатия : С потерями
Размер потока : 107 Мбайт (7%)
Язык : English
Default : Нет
Forced : Нет
Текст #1
Идентификатор : 4
Формат : UTF-8
Идентификатор кодека : S_TEXT/UTF8
Идентификатор кодека/Информация : UTF-8 Plain Text
Язык : Russian
Default : Нет
Forced : Нет
Текст #2
Идентификатор : 5
Формат : UTF-8
Идентификатор кодека : S_TEXT/UTF8
Идентификатор кодека/Информация : UTF-8 Plain Text
Язык : English
Default : Нет
Forced : Нет

Download / Скачать

Хотите скачать бесплатно? Зарегистрируйтесь на сайте (ссылка на регистрацию). Pirat.ca - самый быстрый торрент трекер в рунете!

Как скачивать  ·   Что такое торрент  ·   Рейтинг и ограничения



Последний раз редактировалось: erchine (2014-05-11 17:03), всего редактировалось 4 раз(а)

fr0st1x

Штурман

34

Пост 01-Апр-2014 21:30 (спустя 1 день 1 час)

[Q] 

Отличный мультфильм, спасибо! Лови бочку
[Профиль]  [ЛС] 

GnomKa

Шкипер

Пост 02-Апр-2014 14:06 (спустя 16 часов)

[Q] 

глянем

_________________
Человек человеку волк, а зомби зомби зомби
[Профиль]  [ЛС] 

GnomKa

Шкипер

Пост 03-Апр-2014 12:39 (спустя 22 часа)

[Q] 

Для ребенка очень даже, яркий красочный мультфильм.

_________________
Человек человеку волк, а зомби зомби зомби
[Профиль]  [ЛС] 

sba

Морской Волк

Пост 05-Апр-2014 22:15 (спустя 2 дня 9 часов)

[Q] 

Спасибо, посмотрим. Спасибо!!!
[Профиль]  [ЛС] 

leon99

1585

Пост 07-Апр-2014 15:00 (спустя 1 день 16 часов)

[Q] 

Спасибо!!! Качаю! Спасибо!!!

_________________
[Профиль]  [ЛС] 

Gari4

Флибустьер

Пост 09-Апр-2014 20:22 (спустя 2 дня 5 часов)

[Q] 

нормальный мультик, главное чтобы нравился детям)

_________________
РЕБЯТ!! Подпишитесь на канал! Вам все равно, а мне приятно))
https://www.youtube.com/channel/UCHdnAvKKhkxeJvg3DQ...ew_as=subscriber
[Профиль]  [ЛС] 

Slava30

Морской Волк

Пост 10-Апр-2014 20:13 (спустя 23 часа)

[Q] 

посмотрим
Спасибо!!!
[Профиль]  [ЛС] 

KoSkud

Флибустьер

Пост 11-Апр-2014 16:22 (спустя 20 часов)

[Q] 

erchine,спасибо как всегда ))

_________________
Учись-играя,играя-учись
[Профиль]  [ЛС] 

Bankir

Шкипер

Пост 06-Май-2014 19:56 (спустя 25 дней)

[Q] 

Спасибо!!! !COOL!
[Профиль]  [ЛС] 

erchine ®

45189

Пост 11-Май-2014 17:00 (спустя 4 дня)

[Q] 

Звук заменен на лицензионный.
[Профиль]  [ЛС] 

UA4HQW

Флибустьер

2529

Пост 11-Май-2014 18:17 (спустя 1 час 17 минут)

[Q] 

Хороший мульт. С ребёнком в кинотеатре смотрели. Автору респект!!!
[Профиль]  [ЛС] 

Танюха10988

Гроза морей

Пост 12-Май-2014 21:41 (спустя 1 день 3 часа)

[Q] 

Спасибо, очень хороший мультик Лови бочку
[Профиль]  [ЛС] 

ALEHAN

Легенда

Пост 13-Май-2014 22:35 (спустя 1 день)

[Q] 

Отличный мульт для ребенка
[Профиль]  [ЛС] 

Вут

Морской Волк

78

Пост 16-Май-2014 16:35 (спустя 2 дня 17 часов)

[Q] 

Классный Мульт, давно ждем! Лови бочку
[Профиль]  [ЛС] 

Plager

Лоцман

Пост 17-Май-2014 00:36 (спустя 8 часов)

[Q] 

Вот пишут-отличный мульт для ребенка. Для ребенка какого пола? И возраста?
[Профиль]  [ЛС] 

Pahom91

Лоцман

Пост 28-Май-2014 18:23 (спустя 11 дней)

[Q] 

Для ребёнка для ребёнка.... Вы вот что скажите, для ребёнка 23х лет норм будет?)
[Профиль]  [ЛС] 

Vicflower

Шкипер

Пост 23-Фев-2015 23:11 (спустя 8 месяцев 26 дней)

[Q] 

Хороший мульт!!! Посмотрели с детьми - с удовольствием! Понравится как девчонкам, так и мальчишкам. Да и вообще, всем, кто любит приключения!)) Спасибо!!! Супер!
[Профиль]  [ЛС] 

flesh_208

Флибустьер

Пост 23-Окт-2018 13:31 (спустя 3 года 7 месяцев)

[Q] 

Интересный мульт)
[Профиль]  [ЛС] 
Показать сообщения:    
Ответить на тему

Текущее время: Сегодня 21:15

Часовой пояс: GMT + 4



Вы не можете начинать темы
Вы не можете отвечать на сообщения
Вы не можете редактировать свои сообщения
Вы не можете удалять свои сообщения
Вы не можете голосовать в опросах
Вы не можете прикреплять файлы к сообщениям
Вы не можете скачивать файлы

Майнать ▼