Тайна Сухаревой башни (Серии 1-8 из 8) (Сергей Серегин) [2010 - 2011 г., мультфильм, фэнтези, DVDRip] [Jolly Roger]

Ответить на тему
 
Автор
Сообщение

Пост 30-Окт-2013 18:07

[Q] 

erchine

-Тайна Сухаревой башни- Год выпуска: 2010 - 2011 г.г.
Премьера: май 2014
Производство: Россия, Китай
Жанр: мультфильм, фэнтези
Продолжительность: 8 серий по 00:13:00
Перевод: Не требуется
Режиссер: Сергей Серегин
В ролях: Вадим Демчог, Станислав Дужников
Описание: Россия, конец 17 века. Царь Петр Первый издает указ о праздновании Нового года 1 января. Ко двору царя под видом ученого-механика приезжает магистр темной магии. Когда-то, очень давно, он был одним из привратников, охранявших Врата Волшебных миров. Однажды он открыл дорогу злу, и был за это изгнан. Сейчас он стремится попасть в Волшебные Миры, чтобы вернуть свою магическую силу.
Содержание:
01. Черный Роджер
02. Эликсир жизни
03. Наряд Принцессы ночи
04. Охота на тень
05. Узурпатор времени
06. Морской узел
07. Сон государев
08. Время назад


Качество видео: DVDRip
Контейнер: AVI
Видео кодек: XviD
Аудио кодек: AC3
Видео: Xvid 720x400 25fps 1684 Kbps 0.234 bit/pixel
Аудио: Dolby AC3 48000Hz stereo 448kbps
Общее
Полное имя : D:\Taina.Syharevoi.bashni.2010-2011.XviD.DVDRip.JRG\01.Черный Роджер.avi
Формат : AVI
Формат/Информация : Audio Video Interleave
Размер файла : 202 Мбайт
Продолжительность : 13 м.
Общий поток : 2142 Кбит/сек
Название фильма : 01.Черный Роджер
Программа кодирования : VirtualDubMod 1.5.10.3 | www.virtualdub-fr.org || (build 2550/release)
Правообладатель : The Jolly Roger Release Group by Pirat.CA
Видео
Идентификатор : 0
Формат : MPEG-4 Visual
Профиль формата : Advanced [email protected]
Параметр BVOP формата : 3
Параметр QPel формата : Нет
Параметр GMC формата : Без точки перехода
Параметр матрицы формата : Default (MPEG)
Идентификатор кодека : XVID
Идентификатор кодека/Подсказка : XviD
Продолжительность : 13 м.
Битрейт : 1684 Кбит/сек
Ширина : 720 пикселей
Высота : 400 пикселей
Соотношение сторон : 16:9
Частота кадров : 25,000 кадров/сек
Цветовое пространство : YUV
Субдискретизация насыщенности : 4:2:0
Битовая глубина : 8 бит
Тип развёртки : Прогрессивная
Метод сжатия : С потерями
Бит/(Пиксели*Кадры) : 0.234
Размер потока : 159 Мбайт (79%)
Библиотека кодирования : XviD 1.2.1 (UTC 2008-12-04)
Аудио
Идентификатор : 1
Формат : AC-3
Формат/Информация : Audio Coding 3
Расширение режима : CM (complete main)
Параметр Endianness формата : Big
Идентификатор кодека : 2000
Продолжительность : 13 м.
Вид битрейта : Постоянный
Битрейт : 448 Кбит/сек
Каналы : 2 канала
Расположение каналов : Front: L R
Частота : 48,0 КГц
Битовая глубина : 16 бит
Метод сжатия : С потерями
Размер потока : 42,3 Мбайт (21%)
Выравнивание : Разделение по промежуткам
Продолжительность промежутка : 40 мс. (1,00 видеокадр)
Время предзагрузки промежутка : 500 мс.
Общее
Полное имя : D:\Taina.Syharevoi.bashni.2010-2011.XviD.DVDRip.JRG\02.Эликсир жизни.avi
Формат : AVI
Формат/Информация : Audio Video Interleave
Размер файла : 199 Мбайт
Продолжительность : 12 м.
Общий поток : 2141 Кбит/сек
Название фильма : 02.Эликсир жизни
Программа кодирования : VirtualDubMod 1.5.10.3 | www.virtualdub-fr.org || (build 2550/release)
Правообладатель : The Jolly Roger Release Group by Pirat.CA
Видео
Идентификатор : 0
Формат : MPEG-4 Visual
Профиль формата : Advanced [email protected]
Параметр BVOP формата : 3
Параметр QPel формата : Нет
Параметр GMC формата : Без точки перехода
Параметр матрицы формата : Default (MPEG)
Идентификатор кодека : XVID
Идентификатор кодека/Подсказка : XviD
Продолжительность : 12 м.
Битрейт : 1683 Кбит/сек
Ширина : 720 пикселей
Высота : 400 пикселей
Соотношение сторон : 16:9
Частота кадров : 25,000 кадров/сек
Цветовое пространство : YUV
Субдискретизация насыщенности : 4:2:0
Битовая глубина : 8 бит
Тип развёртки : Прогрессивная
Метод сжатия : С потерями
Бит/(Пиксели*Кадры) : 0.234
Размер потока : 156 Мбайт (79%)
Библиотека кодирования : XviD 1.2.1 (UTC 2008-12-04)
Аудио
Идентификатор : 1
Формат : AC-3
Формат/Информация : Audio Coding 3
Расширение режима : CM (complete main)
Параметр Endianness формата : Big
Идентификатор кодека : 2000
Продолжительность : 12 м.
Вид битрейта : Постоянный
Битрейт : 448 Кбит/сек
Каналы : 2 канала
Расположение каналов : Front: L R
Частота : 48,0 КГц
Битовая глубина : 16 бит
Метод сжатия : С потерями
Размер потока : 41,6 Мбайт (21%)
Выравнивание : Разделение по промежуткам
Продолжительность промежутка : 40 мс. (1,00 видеокадр)
Время предзагрузки промежутка : 500 мс.
Общее
Полное имя : D:\Taina.Syharevoi.bashni.2010-2011.XviD.DVDRip.JRG\03.Наряд принцессы ночи.avi
Формат : AVI
Формат/Информация : Audio Video Interleave
Размер файла : 199 Мбайт
Продолжительность : 13 м.
Общий поток : 2141 Кбит/сек
Название фильма : 03.Наряд принцессы ночи
Программа кодирования : VirtualDubMod 1.5.10.3 | www.virtualdub-fr.org || (build 2550/release)
Правообладатель : The Jolly Roger Release Group by Pirat.CA
Видео
Идентификатор : 0
Формат : MPEG-4 Visual
Профиль формата : Advanced [email protected]
Параметр BVOP формата : 3
Параметр QPel формата : Нет
Параметр GMC формата : Без точки перехода
Параметр матрицы формата : Default (MPEG)
Идентификатор кодека : XVID
Идентификатор кодека/Подсказка : XviD
Продолжительность : 13 м.
Битрейт : 1683 Кбит/сек
Ширина : 720 пикселей
Высота : 400 пикселей
Соотношение сторон : 16:9
Частота кадров : 25,000 кадров/сек
Цветовое пространство : YUV
Субдискретизация насыщенности : 4:2:0
Битовая глубина : 8 бит
Тип развёртки : Прогрессивная
Метод сжатия : С потерями
Бит/(Пиксели*Кадры) : 0.234
Размер потока : 157 Мбайт (79%)
Библиотека кодирования : XviD 1.2.1 (UTC 2008-12-04)
Аудио
Идентификатор : 1
Формат : AC-3
Формат/Информация : Audio Coding 3
Расширение режима : CM (complete main)
Параметр Endianness формата : Big
Идентификатор кодека : 2000
Продолжительность : 13 м.
Вид битрейта : Постоянный
Битрейт : 448 Кбит/сек
Каналы : 2 канала
Расположение каналов : Front: L R
Частота : 48,0 КГц
Битовая глубина : 16 бит
Метод сжатия : С потерями
Размер потока : 41,7 Мбайт (21%)
Выравнивание : Разделение по промежуткам
Продолжительность промежутка : 40 мс. (1,00 видеокадр)
Время предзагрузки промежутка : 500 мс.
Общее
Полное имя : D:\Taina.Syharevoi.bashni.2010-2011.XviD.DVDRip.JRG\04.Охота на тень.avi
Формат : AVI
Формат/Информация : Audio Video Interleave
Размер файла : 201 Мбайт
Продолжительность : 13 м.
Общий поток : 2125 Кбит/сек
Название фильма : 04.Охота на тень
Программа кодирования : VirtualDubMod 1.5.10.3 | www.virtualdub-fr.org || (build 2550/release)
Правообладатель : The Jolly Roger Release Group by Pirat.CA
Видео
Идентификатор : 0
Формат : MPEG-4 Visual
Профиль формата : Advanced [email protected]
Параметр BVOP формата : 3
Параметр QPel формата : Нет
Параметр GMC формата : Без точки перехода
Параметр матрицы формата : Default (MPEG)
Идентификатор кодека : XVID
Идентификатор кодека/Подсказка : XviD
Продолжительность : 13 м.
Битрейт : 1667 Кбит/сек
Ширина : 720 пикселей
Высота : 400 пикселей
Соотношение сторон : 16:9
Частота кадров : 25,000 кадров/сек
Цветовое пространство : YUV
Субдискретизация насыщенности : 4:2:0
Битовая глубина : 8 бит
Тип развёртки : Прогрессивная
Метод сжатия : С потерями
Бит/(Пиксели*Кадры) : 0.232
Размер потока : 158 Мбайт (78%)
Библиотека кодирования : XviD 1.2.1 (UTC 2008-12-04)
Аудио
Идентификатор : 1
Формат : AC-3
Формат/Информация : Audio Coding 3
Расширение режима : CM (complete main)
Параметр Endianness формата : Big
Идентификатор кодека : 2000
Продолжительность : 13 м.
Вид битрейта : Постоянный
Битрейт : 448 Кбит/сек
Каналы : 2 канала
Расположение каналов : Front: L R
Частота : 48,0 КГц
Битовая глубина : 16 бит
Метод сжатия : С потерями
Размер потока : 42,4 Мбайт (21%)
Выравнивание : Разделение по промежуткам
Продолжительность промежутка : 40 мс. (1,00 видеокадр)
Время предзагрузки промежутка : 500 мс.
Общее
Полное имя : D:\Taina.Syharevoi.bashni.2010-2011.XviD.DVDRip.JRG\05.Узурпатор времени.avi
Формат : AVI
Формат/Информация : Audio Video Interleave
Размер файла : 202 Мбайт
Продолжительность : 13 м.
Общий поток : 2139 Кбит/сек
Название фильма : 05.Узурпатор времени
Программа кодирования : VirtualDubMod 1.5.10.3 | www.virtualdub-fr.org || (build 2550/release)
Правообладатель : The Jolly Roger Release Group by Pirat.CA
Видео
Идентификатор : 0
Формат : MPEG-4 Visual
Профиль формата : Advanced [email protected]
Параметр BVOP формата : 3
Параметр QPel формата : Нет
Параметр GMC формата : Без точки перехода
Параметр матрицы формата : Default (MPEG)
Идентификатор кодека : XVID
Идентификатор кодека/Подсказка : XviD
Продолжительность : 13 м.
Битрейт : 1682 Кбит/сек
Ширина : 720 пикселей
Высота : 400 пикселей
Соотношение сторон : 16:9
Частота кадров : 25,000 кадров/сек
Цветовое пространство : YUV
Субдискретизация насыщенности : 4:2:0
Битовая глубина : 8 бит
Тип развёртки : Прогрессивная
Метод сжатия : С потерями
Бит/(Пиксели*Кадры) : 0.234
Размер потока : 158 Мбайт (79%)
Библиотека кодирования : XviD 1.2.1 (UTC 2008-12-04)
Аудио
Идентификатор : 1
Формат : AC-3
Формат/Информация : Audio Coding 3
Расширение режима : CM (complete main)
Параметр Endianness формата : Big
Идентификатор кодека : 2000
Продолжительность : 13 м.
Вид битрейта : Постоянный
Битрейт : 448 Кбит/сек
Каналы : 2 канала
Расположение каналов : Front: L R
Частота : 48,0 КГц
Битовая глубина : 16 бит
Метод сжатия : С потерями
Размер потока : 42,2 Мбайт (21%)
Выравнивание : Разделение по промежуткам
Продолжительность промежутка : 40 мс. (1,00 видеокадр)
Время предзагрузки промежутка : 500 мс.
Общее
Полное имя : D:\Taina.Syharevoi.bashni.2010-2011.XviD.DVDRip.JRG\06.Морской узел.avi
Формат : AVI
Формат/Информация : Audio Video Interleave
Размер файла : 200 Мбайт
Продолжительность : 13 м.
Общий поток : 2141 Кбит/сек
Название фильма : 06.Морской узел
Программа кодирования : VirtualDubMod 1.5.10.3 | www.virtualdub-fr.org || (build 2550/release)
Правообладатель : The Jolly Roger Release Group by Pirat.CA
Видео
Идентификатор : 0
Формат : MPEG-4 Visual
Профиль формата : Advanced [email protected]
Параметр BVOP формата : 3
Параметр QPel формата : Нет
Параметр GMC формата : Без точки перехода
Параметр матрицы формата : Default (MPEG)
Идентификатор кодека : XVID
Идентификатор кодека/Подсказка : XviD
Продолжительность : 13 м.
Битрейт : 1683 Кбит/сек
Ширина : 720 пикселей
Высота : 400 пикселей
Соотношение сторон : 16:9
Частота кадров : 25,000 кадров/сек
Цветовое пространство : YUV
Субдискретизация насыщенности : 4:2:0
Битовая глубина : 8 бит
Тип развёртки : Прогрессивная
Метод сжатия : С потерями
Бит/(Пиксели*Кадры) : 0.234
Размер потока : 157 Мбайт (79%)
Библиотека кодирования : XviD 1.2.1 (UTC 2008-12-04)
Аудио
Идентификатор : 1
Формат : AC-3
Формат/Информация : Audio Coding 3
Расширение режима : CM (complete main)
Параметр Endianness формата : Big
Идентификатор кодека : 2000
Продолжительность : 13 м.
Вид битрейта : Постоянный
Битрейт : 448 Кбит/сек
Каналы : 2 канала
Расположение каналов : Front: L R
Частота : 48,0 КГц
Битовая глубина : 16 бит
Метод сжатия : С потерями
Размер потока : 41,8 Мбайт (21%)
Выравнивание : Разделение по промежуткам
Продолжительность промежутка : 40 мс. (1,00 видеокадр)
Время предзагрузки промежутка : 500 мс.
Общее
Полное имя : D:\Taina.Syharevoi.bashni.2010-2011.XviD.DVDRip.JRG\07.Сон государев.avi
Формат : AVI
Формат/Информация : Audio Video Interleave
Размер файла : 203 Мбайт
Продолжительность : 13 м.
Общий поток : 2142 Кбит/сек
Название фильма : 07.Сон государев
Программа кодирования : VirtualDubMod 1.5.10.3 | www.virtualdub-fr.org || (build 2550/release)
Правообладатель : The Jolly Roger Release Group by Pirat.CA
Видео
Идентификатор : 0
Формат : MPEG-4 Visual
Профиль формата : Advanced [email protected]
Параметр BVOP формата : 3
Параметр QPel формата : Нет
Параметр GMC формата : Без точки перехода
Параметр матрицы формата : Default (MPEG)
Идентификатор кодека : XVID
Идентификатор кодека/Подсказка : XviD
Продолжительность : 13 м.
Битрейт : 1684 Кбит/сек
Ширина : 720 пикселей
Высота : 400 пикселей
Соотношение сторон : 16:9
Частота кадров : 25,000 кадров/сек
Цветовое пространство : YUV
Субдискретизация насыщенности : 4:2:0
Битовая глубина : 8 бит
Тип развёртки : Прогрессивная
Метод сжатия : С потерями
Бит/(Пиксели*Кадры) : 0.234
Размер потока : 160 Мбайт (79%)
Библиотека кодирования : XviD 1.2.1 (UTC 2008-12-04)
Аудио
Идентификатор : 1
Формат : AC-3
Формат/Информация : Audio Coding 3
Расширение режима : CM (complete main)
Параметр Endianness формата : Big
Идентификатор кодека : 2000
Продолжительность : 13 м.
Вид битрейта : Постоянный
Битрейт : 448 Кбит/сек
Каналы : 2 канала
Расположение каналов : Front: L R
Частота : 48,0 КГц
Битовая глубина : 16 бит
Метод сжатия : С потерями
Размер потока : 42,5 Мбайт (21%)
Выравнивание : Разделение по промежуткам
Продолжительность промежутка : 40 мс. (1,00 видеокадр)
Время предзагрузки промежутка : 500 мс.
Общее
Полное имя : D:\Taina.Syharevoi.bashni.2010-2011.XviD.DVDRip.JRG\08.Время назад.avi
Формат : AVI
Формат/Информация : Audio Video Interleave
Размер файла : 198 Мбайт
Продолжительность : 13 м.
Общий поток : 2114 Кбит/сек
Название фильма : 08.Время назад
Программа кодирования : VirtualDubMod 1.5.10.3 | www.virtualdub-fr.org || (build 2550/release)
Правообладатель : The Jolly Roger Release Group by Pirat.CA
Видео
Идентификатор : 0
Формат : MPEG-4 Visual
Профиль формата : Advanced [email protected]
Параметр BVOP формата : 3
Параметр QPel формата : Нет
Параметр GMC формата : Без точки перехода
Параметр матрицы формата : Default (MPEG)
Идентификатор кодека : XVID
Идентификатор кодека/Подсказка : XviD
Продолжительность : 13 м.
Битрейт : 1656 Кбит/сек
Ширина : 720 пикселей
Высота : 400 пикселей
Соотношение сторон : 16:9
Частота кадров : 25,000 кадров/сек
Цветовое пространство : YUV
Субдискретизация насыщенности : 4:2:0
Битовая глубина : 8 бит
Тип развёртки : Прогрессивная
Метод сжатия : С потерями
Бит/(Пиксели*Кадры) : 0.230
Размер потока : 155 Мбайт (78%)
Библиотека кодирования : XviD 1.2.1 (UTC 2008-12-04)
Аудио
Идентификатор : 1
Формат : AC-3
Формат/Информация : Audio Coding 3
Расширение режима : CM (complete main)
Параметр Endianness формата : Big
Идентификатор кодека : 2000
Продолжительность : 13 м.
Вид битрейта : Постоянный
Битрейт : 448 Кбит/сек
Каналы : 2 канала
Расположение каналов : Front: L R
Частота : 48,0 КГц
Битовая глубина : 16 бит
Метод сжатия : С потерями
Размер потока : 42,0 Мбайт (21%)
Выравнивание : Разделение по промежуткам
Продолжительность промежутка : 40 мс. (1,00 видеокадр)
Время предзагрузки промежутка : 500 мс.

Download / Скачать

Хотите скачать бесплатно? Зарегистрируйтесь на сайте (ссылка на регистрацию). Pirat.ca - самый быстрый торрент трекер в рунете!

Как скачивать  ·   Что такое торрент  ·   Рейтинг и ограничения



Последний раз редактировалось: erchine (2013-10-30 18:58), всего редактировалось 2 раз(а)

Варон

Корсар

Пост 30-Окт-2013 18:32 (спустя 24 минуты)

[Q] 

как мульт интересный?))
[Профиль]  [ЛС] 

polozm

Легенда

Пост 30-Окт-2013 18:57 (спустя 25 минут)

[Q] 

прикольные гербарии они курят ce ct или нюхают чё.....

_________________
mac mini -2.0 GHz Intel Core i7/ 8 GB DDR3. /Intel HD 3000(512mb)OS X 10.9 Mavericks
[Профиль]  [ЛС] 

cssergey

Легенда

Пост 30-Окт-2013 19:09 (спустя 11 минут)

[Q] 

кто нибудь глянул уже?
[Профиль]  [ЛС] 

Раемия

Флибустьер

Пост 30-Окт-2013 22:12 (спустя 3 часа)

[Q] 

Ну что народ,как мульт? Стоит тратить время?

_________________
Любите кроликов!!!…и они отплатят вам тем же…
[Профиль]  [ЛС] 

platon18

Гроза морей

Пост 31-Окт-2013 11:41 (спустя 13 часов)

[Q] 

глянем, один фиг нече смотреть
[Профиль]  [ЛС] 

[email protected]

Легенда

Пост 01-Ноя-2013 05:33 (спустя 17 часов)

[Q] 

Спасибо!!! .
[Профиль]  [ЛС] 

sergiykvd

Лоцман

Пост 01-Ноя-2013 15:49 (спустя 10 часов)

[Q] 

хм. так никто и не ответил как мультфильм. куда все от него разбежались??
благодарность раздающему предъявленна. Раздающему респект!
[Профиль]  [ЛС] 

Alex Yz

Гроза морей

Пост 01-Ноя-2013 18:42 (спустя 2 часа 53 минуты)

[Q] 

Спасибо. Скачал. Сейчас посмотрим и сообщим впечатления.
Добавлено спустя 15 минут 39 секунд:
Великолепная вещь. И жене и детям понравилась.
[Профиль]  [ЛС] 

Alex Yz

Гроза морей

Пост 04-Ноя-2013 19:04 (спустя 3 дня)

[Q] 

Мульт, очень хороший. Качество так-же хорошее. Детям очень понравилось.
[Профиль]  [ЛС] 

polozm

Легенда

Пост 06-Ноя-2013 11:02 (спустя 1 день 15 часов)

[Q] 

Спасибо за раздачу!Но дочке его не покажу 100%.Хорошо что сам глянул перед тем как ей ставить... fg db

_________________
mac mini -2.0 GHz Intel Core i7/ 8 GB DDR3. /Intel HD 3000(512mb)OS X 10.9 Mavericks
[Профиль]  [ЛС] 

Stepolton

Штурман

Пост 07-Ноя-2013 10:45 (спустя 23 часа)

[Q] 

444478Спасибо за раздачу!Но дочке его не покажу 100%.Хорошо что сам глянул перед тем как ей ставить... fg db
Уважаемый вы бы комментировали свои пояснения что бы людей в заблуждение не вводить
[Профиль]  [ЛС] 

kydinoff

Шкипер

Пост 09-Ноя-2013 23:46 (спустя 2 дня 13 часов)

[Q] 

скачаю, посмотрю, раскажу
[Профиль]  [ЛС] 

IntroSky

Лоцман

Пост 10-Ноя-2013 18:23 (спустя 18 часов)

[Q] 

Подожду адекватной рецензии
[Профиль]  [ЛС] 

ВованСидорыч

Шкипер

Пост 20-Ноя-2013 15:14 (спустя 9 дней)

[Q] 

Мне понравилось Большое спасибо!
[Профиль]  [ЛС] 

Раемия

Флибустьер

Пост 29-Ноя-2013 02:13 (спустя 8 дней)

[Q] 

Нормальных комментов нет.Решено! Скачаю! Посмотрю! Поделюсь впечатлениями!
Добавлено спустя 2 часа 44 минуты 56 секунд:
Скачали и уже весь мульт посмотрели! Это потрясающая работа!!!! Вся семья в восторге! А над серией "Сон государев",угарали все!!!Спасибо создателям,за смех и отличное настроение! Автору респект!!!

_________________
Любите кроликов!!!…и они отплатят вам тем же…
[Профиль]  [ЛС] 

Hausser

Гроза морей

Пост 04-Янв-2014 12:27 (спустя 1 месяц 5 дней)

[Q] 

Дочка сказала: "Как-то всё просто..." Раздающему респект!
[Профиль]  [ЛС] 

flesh_208

Флибустьер

Пост 23-Окт-2018 13:33 (спустя 4 года 9 месяцев)

[Q] 

Интересно,заценем с дочей)
[Профиль]  [ЛС] 
Показать сообщения:    
Ответить на тему

Текущее время: Сегодня 03:38

Часовой пояс: GMT + 4



Вы не можете начинать темы
Вы не можете отвечать на сообщения
Вы не можете редактировать свои сообщения
Вы не можете удалять свои сообщения
Вы не можете голосовать в опросах
Вы не можете прикреплять файлы к сообщениям
Вы не можете скачивать файлы

Майнать ▼