Джастин и рыцари доблести / Justin and the Knights of Valour (Мануэль Сисилия / Manuel Sicilia) [2013 г., мультфильм, приключения, BDRip-AVC] Dub [Jolly Roger]

Ответить на тему
 
Автор
Сообщение

Пост 05-Дек-2013 18:44

[Q] 

erchine

-Джастин и рыцари доблести / Justin and the Knights of Valour- Год выпуска: 2013 г.
Производство: Испания
Жанр: мультфильм, приключения
Продолжительность: 01:35:48
Перевод: Профессиональный (полное дублирование)
Режиссер: Мануэль Сисилия / Manuel Sicilia
В ролях: Фредди Хаймор, Сирша Ронан, Марк Стронг, Дэвид Уоллиамс, Антонио Бандерас, Альфред Молина, Джули Уолтерс, Оливия Уильямс, Чарльз Дэнс, Руперт Эверетт
Описание: Действие мультфильма разворачивается в магическом мире, о котором мечтает каждый ребёнок. Джастин мечтает стать рыцарем, но на его пути появляется много препятствий бюрократического характера. Даже отец Джастина против рыцарства и хочет, чтобы сын стал придворным служащим. Тогда мальчик, обуреваемый желанием стать настоящим доблестным Рыцарем, сбегает из дома в поисках приключений. По дороге он знакомится с прекрасной девушкой — Талией, вдохновляющей его на новые подвиги, и встречает мудрых рыцарей-наставников, которые обучают его рыцарскому мастерству. Но хватит ли Джастину полученных знаний для того, чтобы справиться с угрозой, которая нависла над его Королевством? Сумеет ли мальчик преодолеть все препятствия и достичь своей мечты? Качество видео: BDRip-AVC
Контейнер: MKV
Видео кодек: H.264
Аудио кодек: AC3
Видео: MPEG4 Video (H264) 1072x448 23.976fps 1710 Kbps
Аудио: Dolby AC3 48000Hz 6ch 448 Kbps / Русский
General
Unique ID : 229770185333747602592745042375314222977 (0xACDC20C652A8099AA79FE32339B7AF81)
Complete name : F:\Justin.and.the.Knights.2013.H.264.BDRip-AVC.JRG.mkv
Format : Matroska
Format version : Version 4 / Version 2
File size : 1.45 GiB
Duration : 1h 35mn
Overall bit rate : 2 160 Kbps
Movie name : The Jolly Roger Release Group by Pirat.CA
Encoded date : UTC 2013-12-05 14:25:18
Writing application : mkvmerge v6.3.0 ('You can't stop me!') built on Jun 28 2013 20:09:41
Writing library : libebml v1.3.0 + libmatroska v1.4.0
Video
ID : 1
Format : AVC
Format/Info : Advanced Video Codec
Format profile : [email protected]
Format settings, CABAC : Yes
Format settings, ReFrames : 7 frames
Codec ID : V_MPEG4/ISO/AVC
Duration : 1h 35mn
Bit rate : 1 710 Kbps
Width : 1 072 pixels
Height : 448 pixels
Display aspect ratio : 2.40:1
Frame rate mode : Constant
Frame rate : 23.976 fps
Color space : YUV
Chroma subsampling : 4:2:0
Bit depth : 8 bits
Scan type : Progressive
Bits/(Pixel*Frame) : 0.149
Stream size : 1.12 GiB (77%)
Writing library : x264 core 130 r2273 b3065e6
Encoding settings : cabac=1 / ref=7 / deblock=1:0:0 / analyse=0x3:0x133 / me=umh / subme=10 / psy=1 / psy_rd=1.00:0.15 / mixed_ref=0 / me_range=24 / chroma_me=1 / trellis=2 / 8x8dct=1 / cqm=0 / deadzone=21,11 / fast_pskip=0 / chroma_qp_offset=-3 / threads=3 / lookahead_threads=1 / sliced_threads=0 / nr=0 / decimate=1 / interlaced=0 / bluray_compat=0 / constrained_intra=0 / bframes=6 / b_pyramid=2 / b_adapt=2 / b_bias=0 / direct=3 / weightb=1 / open_gop=0 / weightp=2 / keyint=250 / keyint_min=23 / scenecut=40 / intra_refresh=0 / rc_lookahead=50 / rc=2pass / mbtree=1 / bitrate=1710 / ratetol=1.0 / qcomp=0.60 / qpmin=0 / qpmax=69 / qpstep=4 / cplxblur=20.0 / qblur=0.5 / ip_ratio=1.40 / aq=1:1.00
Default : Yes
Forced : No
Audio
ID : 2
Format : AC-3
Format/Info : Audio Coding 3
Mode extension : CM (complete main)
Format settings, Endianness : Big
Codec ID : A_AC3
Duration : 1h 35mn
Bit rate mode : Constant
Bit rate : 448 Kbps
Channel(s) : 6 channels
Channel positions : Front: L C R, Side: L R, LFE
Sampling rate : 48.0 KHz
Bit depth : 16 bits
Compression mode : Lossy
Stream size : 307 MiB (21%)
Default : Yes
Forced : No

Download / Скачать

Хотите скачать бесплатно? Зарегистрируйтесь на сайте (ссылка на регистрацию). Pirat.ca - самый быстрый торрент трекер в рунете!

Как скачивать  ·   Что такое торрент  ·   Рейтинг и ограничения

MAZAKYMP

Флибустьер

Пост 05-Дек-2013 21:05 (спустя 2 часа 21 минута)

[Q] 

Спасибо за мультфильм, посмотрим!
[Профиль]  [ЛС] 

ubadm

Морской Волк

Пост 06-Дек-2013 15:15 (спустя 18 часов)

[Q] 

Спасибо! Посмотрим
[Профиль]  [ЛС] 

ALEHAN

Легенда

Пост 06-Дек-2013 21:32 (спустя 6 часов)

[Q] 

Неплохой мульт. Есть запоминающиеся персонажи. Лошадь просто прелесть!
[Профиль]  [ЛС] 

ElSkorpio

16

Пост 08-Дек-2013 01:23 (спустя 1 день 3 часа)

[Q] 

Спасибо!!! глянем!

_________________
[Профиль]  [ЛС] 

OleksBy

Корсар

Пост 09-Дек-2013 13:17 (спустя 1 день 11 часов)

[Q] 

Спасибо! Автору респект!!!
[Профиль]  [ЛС] 

ferganec

Шкипер

Пост 11-Дек-2013 17:22 (спустя 2 дня 4 часа)

[Q] 

Спасибо, весьма смотрибельно cy

_________________
Пиратству - Да!
[Профиль]  [ЛС] 

Benzyn

Штурман

Пост 22-Дек-2013 11:03 (спустя 10 дней)

[Q] 

спасибо, ребенку понравилось
[Профиль]  [ЛС] 

vesna_7777

Корсар

Пост 28-Янв-2014 17:19 (спустя 1 месяц 6 дней)

[Q] 

Хороший мультик. Спасибо.
[Профиль]  [ЛС] 

flesh_208

Флибустьер

Пост 23-Окт-2018 13:36 (спустя 4 года 8 месяцев)

[Q] 

С дочкой долго выбирали, остановились на "лыцарях")
[Профиль]  [ЛС] 
Показать сообщения:    
Ответить на тему

Текущее время: Сегодня 09:10

Часовой пояс: GMT + 4



Вы не можете начинать темы
Вы не можете отвечать на сообщения
Вы не можете редактировать свои сообщения
Вы не можете удалять свои сообщения
Вы не можете голосовать в опросах
Вы не можете прикреплять файлы к сообщениям
Вы не можете скачивать файлы

Майнать ▼