[Jolly Roger] Тэд Джонс и Затерянный город / Las aventuras de Tadeo Jones ( Энрике Гато / Enrique Gato) [2012 г., Мультфильм, приключения, семейный, BDRip-AVC] Dub [Лицензия] + Original (Eng)

Ответить на тему
 
Автор
Сообщение

Пост 19-Янв-2013 11:45

[Q] 

Amethyst

Гроза морей

-Тэд Джонс и Затерянный город / Las aventuras de Tadeo Jones
«По следам Индианы Джонса»
-- Год выпуска: 2012 г.
Мировая премьера: 4 июня 2012
Российская премьера: 6 декабря 2012, «Каравелла DDC»
Дата выхода DVD: 23 января 2013, «Кармен Видео», «ВС трейд»
Дата выхода Blu-Ray: 23 января 2013, «Кармен Видео»
Производство: Испания / Telefоnica Producciones, Ikiru Films, Lightbox Entertainment
Жанр: Мультфильм, приключения, семейный
Продолжительность: 01:32:09
Перевод: Профессиональный (полное дублирование) [Лицензия]
Оригинальный аудиопоток: Английский
Режиссер: Энрике Гато / Enrique Gato
Роли озвучивали: Оскар Барберан, Меритксель Ане, Карлес Канут, Фиона Глэскотт, Адам Джеймс, Мишель Хеннер, Мигель Анхель Дженнер, Энрикета Линарес, Мак МакДональд, Брюс Маккиннон
Описание: Тэд — обычный чикагский строитель, страстно мечтающий о невероятных открытиях и опасных приключениях. Однажды его по ошибке принимают за известного археолога и отправляют в Перу на поиски сокровищ инков. Радости Тэда не было предела, но, похоже, она оказалась преждевременной…-- --Качество видео: BDRip-AVC
Формат видео: MKV
Видео кодек: H.264
Аудио кодек: AC3
Видео: 1008x544(1,85:1), 24.000 fps, 2262Kbps
Аудио #1: 48.0 KHz, 6 ch, 448 Kbps Rus
Аудио #2: 48.0 KHz, 6 ch, 448 Kbps Eng
Общее
Уникальный идентификатор : 252962677256172410293942899897066517232 (0xBE4ED6E91436894EABFB0D5A7D1AF2F0)
Полное имя : D:\Торенты\Las.aventuras.de.Tadeo.Jones.2012.x264.BDRip-AVC.JRG.mkv
Формат : Matroska
Версия формата : Version 2
Размер файла : 2,03 Гбайт
Продолжительность : 1 ч. 32 м.
Общий поток : 3160 Кбит/сек
Название фильма : Tjed Dzhons i Zaterjannyi' gorod (2012) - The Jolly Roger by Pirat.Ca [Amethyst]
Дата кодирования : UTC 2013-01-19 07:17:21
Программа кодирования : mkvmerge v4.9.1 ('Ich will') сборка от Jul 11 2011 23:53:15
Библиотека кодирования : libebml v1.2.1 + libmatroska v1.1.1
Видео
Идентификатор : 1
Формат : AVC
Формат/Информация : Advanced Video Codec
Профиль формата : [email protected]
Параметр CABAC формата : Да
Параметр ReFrames формата : 12 кадров
Идентификатор кодека : V_MPEG4/ISO/AVC
Продолжительность : 1 ч. 32 м.
Битрейт : 2262 Кбит/сек
Ширина : 1008 пикселей
Высота : 544 пикселя
Соотношение сторон : 1,85:1
Частота кадров : 24,000 кадра/сек
Цветовое пространство : YUV
Субдискретизация насыщенности : 4:2:0
Битовая глубина : 8 бит
Тип развёртки : Прогрессивная
Бит/(Пиксели*Кадры) : 0.172
Размер потока : 1,42 Гбайт (70%)
Заголовок : JRG
Библиотека кодирования : x264 core 116 r2044 392e762
Настройки программы : cabac=1 / ref=12 / deblock=1:-1:-1 / analyse=0x3:0x113 / me=umh / subme=9 / psy=1 / psy_rd=1.00:0.00 / mixed_ref=1 / me_range=32 / chroma_me=1 / trellis=1 / 8x8dct=1 / cqm=0 / deadzone=21,11 / fast_pskip=0 / chroma_qp_offset=-2 / threads=12 / sliced_threads=0 / nr=0 / decimate=1 / interlaced=0 / bluray_compat=0 / constrained_intra=0 / bframes=9 / b_pyramid=2 / b_adapt=2 / b_bias=0 / direct=3 / weightb=1 / open_gop=0 / weightp=2 / keyint=250 / keyint_min=23 / scenecut=40 / intra_refresh=0 / rc_lookahead=50 / rc=2pass / mbtree=1 / bitrate=2262 / ratetol=1.0 / qcomp=0.70 / qpmin=0 / qpmax=69 / qpstep=4 / cplxblur=20.0 / qblur=0.5 / ip_ratio=1.40 / aq=1:1.00
Default : Да
Forced : Нет
Аудио #1
Идентификатор : 2
Формат : AC-3
Формат/Информация : Audio Coding 3
Расширение режима : CM (complete main)
Параметр Endianness формата : Big
Идентификатор кодека : A_AC3
Продолжительность : 1 ч. 32 м.
Вид битрейта : Постоянный
Битрейт : 448 Кбит/сек
Каналы : 6 каналов
Расположение каналов : Front: L C R, Side: L R, LFE
Частота : 48,0 КГц
Битовая глубина : 16 бит
Метод сжатия : С потерями
Размер потока : 295 Мбайт (14%)
Заголовок : Dub
Язык : Russian
Default : Да
Forced : Нет
Аудио #2
Идентификатор : 3
Формат : AC-3
Формат/Информация : Audio Coding 3
Расширение режима : CM (complete main)
Параметр Endianness формата : Big
Идентификатор кодека : A_AC3
Продолжительность : 1 ч. 32 м.
Вид битрейта : Постоянный
Битрейт : 448 Кбит/сек
Каналы : 6 каналов
Расположение каналов : Front: L C R, Side: L R, LFE
Частота : 48,0 КГц
Битовая глубина : 16 бит
Метод сжатия : С потерями
Размер потока : 295 Мбайт (14%)
Язык : English
Default : Нет
Forced : Нет
-
--
Download / Скачать

Хотите скачать бесплатно? Зарегистрируйтесь на сайте (ссылка на регистрацию). Pirat.ca - самый быстрый торрент трекер в рунете!

Как скачивать  ·   Что такое торрент  ·   Рейтинг и ограничения

Wolf

59832

Пост 19-Янв-2013 12:12 (спустя 26 минут)

[Q] 

[Профиль]  [ЛС] 

AGKRus36

38020

Пост 19-Янв-2013 13:45 (спустя 1 час 33 минуты)

[Q] 


_________________
Мои раздачи
[Профиль]  [ЛС] 

Dante67

Флибустьер

19

Пост 19-Янв-2013 14:48 (спустя 1 час 3 минуты)

[Q] 

[Профиль]  [ЛС] 

leonid.

Флибустьер

Пост 19-Янв-2013 17:48 (спустя 2 часа 59 минут)

[Q] 

[Профиль]  [ЛС] 

DHARMEEDONT

Флибустьер

Пост 21-Янв-2013 01:32 (спустя 1 день 7 часов)

[Q] 

[Профиль]  [ЛС] 

[email protected]

Легенда

Пост 21-Янв-2013 08:45 (спустя 7 часов)

[Q] 

.
[Профиль]  [ЛС] 

tema5.88

Морской Волк

2

Пост 21-Янв-2013 09:40 (спустя 54 минуты)

[Q] 

Мульт классный всем смотреть!
[Профиль]  [ЛС] 

ursus

Морской Волк

Пост 21-Янв-2013 11:31 (спустя 1 час 51 минута)

[Q] 

[Профиль]  [ЛС] 

YBbI de FiiS

Корсар

Пост 21-Янв-2013 15:59 (спустя 4 часа)

[Q] 

Благодарю, заценим )
[Профиль]  [ЛС] 

mrsanek85

Штурман

Пост 22-Янв-2013 04:07 (спустя 12 часов)

[Q] 

[Профиль]  [ЛС] 

varilchenko1986

Лоцман

Пост 22-Янв-2013 11:40 (спустя 7 часов)

[Q] 

Козный мультик!
[Профиль]  [ЛС] 

edik32

Морской Волк

Пост 22-Янв-2013 14:32 (спустя 2 часа 51 минута)

[Q] 

[Профиль]  [ЛС] 

Тёркин

Морской Волк

Пост 22-Янв-2013 17:58 (спустя 3 часа)

[Q] 

az
[Профиль]  [ЛС] 

LEO32

Корсар

Пост 22-Янв-2013 22:48 (спустя 4 часа)

[Q] 

[Профиль]  [ЛС] 

Tolich2

Морской Волк

Пост 26-Янв-2013 23:09 (спустя 4 дня)

[Q] 

сильно детский?

_________________
[Профиль]  [ЛС] 

xdgx

Флибустьер

Пост 27-Янв-2013 11:27 (спустя 12 часов)

[Q] 

[Профиль]  [ЛС] 

AlexxS

Шкипер

Пост 02-Фев-2013 22:04 (спустя 6 дней)

[Q] 

[Профиль]  [ЛС] 

jesus-w

Корсар

Пост 02-Фев-2013 22:29 (спустя 25 минут)

[Q] 

[Профиль]  [ЛС] 

vasi

Корсар

Пост 02-Фев-2013 23:23 (спустя 53 минуты)

[Q] 

[Профиль]  [ЛС] 

Valentin2010

Корсар

Пост 31-Мар-2013 22:14 (спустя 1 месяц 28 дней)

[Q] 

Спасибо!!!!

_________________
"Никогда не мстите подлым людям. Просто станьте счастливыми. И они этого не переживут... " – Юрий Никулин
[Профиль]  [ЛС] 

dido51

Морской Волк

Пост 20-Апр-2013 20:13 (спустя 19 дней)

[Q] 

[Профиль]  [ЛС] 

OlegSh

Морской Волк

Пост 23-Май-2013 09:15 (спустя 1 месяц 2 дня)

[Q] 

надо тоже посмотреть
[Профиль]  [ЛС] 

egor2014

Шкипер

Пост 31-Июл-2013 12:00 (спустя 2 месяца 8 дней)

[Q] 

Спасибо!!!
[Профиль]  [ЛС] 

maksssi

Корсар

Пост 18-Авг-2013 15:44 (спустя 18 дней)

[Q] 

Спасибо!!! Супер!
[Профиль]  [ЛС] 

bolin

Флибустьер

Пост 24-Ноя-2014 23:05 (спустя 1 год 3 месяца)

[Q] 

Забираю мальчикам! Спасибо!
[Профиль]  [ЛС] 

flesh_208

Флибустьер

Пост 23-Окт-2018 14:01 (спустя 3 года 10 месяцев)

[Q] 

Интересно - с!
[Профиль]  [ЛС] 
Показать сообщения:    
Ответить на тему

Текущее время: Сегодня 09:38

Часовой пояс: GMT + 4



Вы не можете начинать темы
Вы не можете отвечать на сообщения
Вы не можете редактировать свои сообщения
Вы не можете удалять свои сообщения
Вы не можете голосовать в опросах
Вы не можете прикреплять файлы к сообщениям
Вы не можете скачивать файлы

Майнать ▼