На крючке: Хорошо быть плохим / Crook: It's Good to Be Bad (Мохит Сури / Mohit Suri) [2010 г., Индия, Боевик, триллер, драма, DVDRip] MVO

Ответить на тему
 
Автор
Сообщение

Пост 12-Фев-2017 21:58

[Q] 

somik

-На крючке: Хорошо быть плохим / Crook: It's Good to Be Bad-- Производство: Индия, Films & Casting Temple Pvt. Ltd. Sydney, Vishesh Films
Год выпуска: 2010 г.
Жанр: Боевик, триллер, драма
Продолжительность: 01:59:29
Мировая премьера: 8 октября 2010
Перевод: Профессиональный (многоголосый, закадровый) [Red Media]
Режиссер: Мохит Сури / Mohit Suri-В ролях: Эмран Хашми, Неха Шарма, Арджан Баджва, Машхур Амрохи, Кавин Дэйв, Шелла Алан, Фрэнсис Чалер, Джеффри Тангрео Тсоутсос, Аман Хора, Джайдип Сури-Описание: Эта история о парне по имени Джей, который умеет попадать в неприятности. Сын гангстера, захотевшего порвать с преступным миром. Друг отца, Инспектор Джозеф, гарантировал безопасность и возможность начать новую и честную жизнь, как только он даст показания против своих боссов. Отец Джея выполнил обещание, но, несмотря на его признание, был подло обманут старшим офицером полиции. Героические усилия Джозефа спасти друга ни к чему не привели. Этот травмирующий инцидент оставил неизгладимое впечатление на Джея, для себя он сделал вывод, что не было никакого смысла в том, чтобы быть хорошим и что «Хорошо быть Плохим».-
Качество видео: DVDRip
Контейнер: AVI
Видео кодек: XviD
Аудио кодек: AC3
Видео: 720x304 (2.37:1), 23.976 fps, XviD build 50, 1286 kbps avg, 0.25 bit/pixel
Аудио: 48 kHz, AC3 Dolby Digital, 2/0 (L,R) ch, 192 kbps
Cубтитры: отсутствуют
Долго ждала этот фильм, т. к. интересуюсь творчеством Хашми. Эмран великолепен в этой роли. Как ни странно, в паре с ним не сильно раскрученная актриса, но очень гармонично они смотрятся вместе. Так сказать, искра между ними проскользнула. Хочется такой же любви и таких же отношений.
В фильме поднята тема расизма. Обычный парень-индиец приехал в Австралию (интересный выбор, обычно все стремятся в США, ну да, ладно) в поисках лучшей жизни. И как бы он не пытался избегать проблем и не вмешиваться ни в какие передряги, как завещал друг отца перед отъездом, ему этого, естественно, не избежать. Как обычно любовь все меняет. Да и как можно оставаться в стороне, если идет настоящая война по истреблению индийцев, против смешанных пар? Как писал Булгаков в «Собачьем сердце»: «Разруха в наших головах». Пока есть люди, которые считают себя лучше других, чище кровью, так и не будет в мире спокойствия. Весь сюжет не буду раскрывать, но фильм посмотреть стоит.
Очень здорово подобрана музыка. Скачала все треки себе. Индийцы молодцы, танцы убавили из фильмов, побольше качественной музыки добавили и можно смотреть не отвлекаясь и не раздражаясь, что поют и танцуют через каждые 5 минут. Конечно, музыку и танцы они никогда совсем не уберут, да и что это уже будет тогда за индийский фильм?
За фильм ставлю
10 из 10
Все-таки проблема расизма пока остается актуальной. Ну и потому что, в этом фильме снимается мой любимый актер Эмран Хашми!
Общее
Полное имя : F:\На крючке Хорошо быть плохим (Мошенник хорошо быть плохим) Crook Its Good to Be Bad (2010) DVDRip P\Horosho bytj plohim.2010.DVDRip.[pirat.ca].avi
Формат : AVI
Формат/Информация : Audio Video Interleave
Размер файла : 1,24 Гбайт
Продолжительность : 1 ч. 59 м.
Общий поток : 1487 Кбит/сек
Программа кодирования : VirtualDubMod 1.5.10.3 | www.virtualdub-fr.org || (build 2550/release)
Видео
Идентификатор : 0
Формат : MPEG-4 Visual
Профиль формата : Advanced [email protected]
Параметр BVOP формата : 2
Параметр QPel формата : Да
Параметр GMC формата : Без точки перехода
Параметр матрицы формата : Default (H.263)
Идентификатор кодека : XVID
Идентификатор кодека/Подсказка : XviD
Продолжительность : 1 ч. 59 м.
Битрейт : 1286 Кбит/сек
Ширина : 720 пикселей
Высота : 304 пикселя
Соотношение сторон : 2,35:1
Частота кадров : 23,976 (24000/1001) кадра/сек
Цветовое пространство : YUV
Субдискретизация насыщенности : 4:2:0
Битовая глубина : 8 бит
Тип развёртки : Прогрессивная
Метод сжатия : С потерями
Бит/(Пиксели*Кадры) : 0.245
Размер потока : 1,07 Гбайт (86%)
Библиотека кодирования : XviD 1.2.1 (UTC 2008-12-04)
Аудио
Идентификатор : 1
Формат : AC-3
Формат/Информация : Audio Coding 3
Расширение режима : CM (complete main)
Параметр Endianness формата : Big
Идентификатор кодека : 2000
Продолжительность : 1 ч. 59 м.
Вид битрейта : Постоянный
Битрейт : 192 Кбит/сек
Каналы : 2 канала
Расположение каналов : Front: L R
Частота : 48,0 КГц
Частота кадров : 31,250 кадров/сек (1536 spf)
Метод сжатия : С потерями
Размер потока : 164 Мбайт (13%)
Выравнивание : Разделение по промежуткам
Продолжительность промежутка : 42 мс. (1,00 видеокадр)
Время предзагрузки промежутка : 500 мс.
Download / Скачать

Хотите скачать бесплатно? Зарегистрируйтесь на сайте (ссылка на регистрацию). Pirat.ca - самый быстрый торрент трекер в рунете!

Как скачивать  ·   Что такое торрент  ·   Рейтинг и ограничения

flesh_208

Флибустьер

Пост 24-Окт-2018 09:48 (спустя 1 год 8 месяцев)

[Q] 

Забираю жене. Честно!)
[Профиль]  [ЛС] 
Показать сообщения:    
Ответить на тему

Текущее время: Сегодня 10:13

Часовой пояс: GMT + 4



Вы не можете начинать темы
Вы не можете отвечать на сообщения
Вы не можете редактировать свои сообщения
Вы не можете удалять свои сообщения
Вы не можете голосовать в опросах
Вы не можете прикреплять файлы к сообщениям
Вы не можете скачивать файлы

Майнать ▼