Предрассудки / Khap (Аджай Синха / Ajai Sinha) [2011 г., триллер, драма, DVDRip] MVO + Sub (Eng)

Ответить на тему
 
Автор
Сообщение

Пост 28-Янв-2017 10:08

[Q] 

somik

-Предрассудки / Khap-- Производство: Индия
Год выпуска: 2011 г.
Жанр: триллер, драма
Продолжительность: 02:18:00
Мировая премьера: 29 июля 2011
Перевод: Профессиональный (многоголосый, закадровый) [SDI Media]
Режиссер: Аджай Синха / Ajai Sinha-В ролях: Ом Пури, Говинд Намдео, Манодж Пахва, Ювика Чоудхари, Мохниш Бехл, Сарртадж Гилл-Описание: Сюжет этого необычного фильма разворачивается на фоне жизни одной из индийских общин, основу существования которой составляют вековые традиции. И в первых рядах блюстителей этих традиций выступает Омкар Чоудри. Ради соблюдения вековых устоев он жертвует сыном и безжалостно вершит правосудие по законам клана. Но как он поступит, когда речь зайдет о единственной внучке? Рия, внучка Омкара, знакомится по переписке в Интернете с загадочным «Австралийским кенгуру», и когда речь заходит о встрече, они бросают друг другу вызов. Он должен найти ее по фотографии губ, а она его по фотографии глаз, удастся ли им это? Ещё одной преградой на пути к их счастью становится панчаят, приговаривающий к смерти пары, поженившиеся против его воли.-
Качество видео: DVDRip
Контейнер: AVI
Видео кодек: XviD
Аудио кодек: AC3
Видео: 720x304 (2.37:1), 23.976 fps, XviD build 50, 1054 kbps avg, 0.20 bit/pixel
Аудио: 48 kHz, AC3 Dolby Digital, 2/0 (L,R) ch, 192 kbps
Cубтитры: английские
Формат субтитров: softsub (SRT)
Доп. информация о субтитрах: внешние
Общее
Полное имя : J:\Предрассудки Khap\Predrassudki.2011.P.DVDRip.[pirat.ca]\Predrassudki.2011.P.DVDRip.[pirat.ca].avi
Формат : AVI
Формат/Информация : Audio Video Interleave
Размер файла : 1,21 Гбайт
Продолжительность : 2 ч. 18 м.
Общий поток : 1257 Кбит/сек
Программа кодирования : VirtualDubMod 1.5.10.3 (build 2550/release)
Библиотека кодирования : VirtualDubMod build 2550/release
Видео
Идентификатор : 0
Формат : MPEG-4 Visual
Профиль формата : Advanced [email protected]
Параметр BVOP формата : 1
Параметр QPel формата : Нет
Параметр GMC формата : Без точки перехода
Параметр матрицы формата : Выборочная
Идентификатор кодека : XVID
Идентификатор кодека/Подсказка : XviD
Продолжительность : 2 ч. 18 м.
Битрейт : 1055 Кбит/сек
Ширина : 720 пикселей
Высота : 304 пикселя
Соотношение сторон : 2,35:1
Частота кадров : 23,976 (24000/1001) кадра/сек
Цветовое пространство : YUV
Субдискретизация насыщенности : 4:2:0
Битовая глубина : 8 бит
Тип развёртки : Прогрессивная
Метод сжатия : С потерями
Бит/(Пиксели*Кадры) : 0.201
Размер потока : 1,02 Гбайт (84%)
Библиотека кодирования : XviD 1.2.1 (UTC 2008-12-04)
Аудио
Идентификатор : 1
Формат : AC-3
Формат/Информация : Audio Coding 3
Расширение режима : CM (complete main)
Параметр Endianness формата : Big
Идентификатор кодека : 2000
Продолжительность : 2 ч. 18 м.
Вид битрейта : Постоянный
Битрейт : 192 Кбит/сек
Каналы : 2 канала
Расположение каналов : Front: L R
Частота : 48,0 КГц
Частота кадров : 31,250 кадров/сек (1536 spf)
Метод сжатия : С потерями
Размер потока : 190 Мбайт (15%)
Выравнивание : Разделение по промежуткам
Продолжительность промежутка : 42 мс. (1,00 видеокадр)
Время предзагрузки промежутка : 500 мс.
Download / Скачать

Хотите скачать бесплатно? Зарегистрируйтесь на сайте (ссылка на регистрацию). Pirat.ca - самый быстрый торрент трекер в рунете!

Как скачивать  ·   Что такое торрент  ·   Рейтинг и ограничения

zohaba

Юнга

Пост 17-Фев-2017 18:17 (спустя 20 дней)

[Q] 

Моя бабушка любит индийские фильмы, надо скачать для нее!
[Профиль]  [ЛС] 

flesh_208

Флибустьер

Пост 24-Окт-2018 09:49 (спустя 1 год 8 месяцев)

[Q] 

788000Моя бабушка любит индийские фильмы, надо скачать для нее!
Да ладно...себе забираешь не бось))
[Профиль]  [ЛС] 
Показать сообщения:    
Ответить на тему

Текущее время: Сегодня 06:35

Часовой пояс: GMT + 4



Вы не можете начинать темы
Вы не можете отвечать на сообщения
Вы не можете редактировать свои сообщения
Вы не можете удалять свои сообщения
Вы не можете голосовать в опросах
Вы не можете прикреплять файлы к сообщениям
Вы не можете скачивать файлы

Майнать ▼