Дорогой Зиндаги / Dear Zindagi (Гаури Шинде / Gauri Shinde) [2016 г., драма, мелодрама, DVDRip] MVO + Sub (Rus)

Ответить на тему
 
Автор
Сообщение

Пост 14-Янв-2017 09:28

[Q] 

somik

-Дорогой Зиндаги / Dear Zindagi-- Производство: Индия
Год выпуска: 2016 г.
Жанр: драма, мелодрама
Продолжительность: 02:30:02
Мировая премьера: 23 ноября 2016
Перевод: Любительский (многоголосый, закадровый)
Режиссер: Гаури Шинде / Gauri Shinde-В ролях: Алиа Бхатт, Шах Рукх Кхан, Кунал Капур, Адитья Рой Капур, Али Зафар, Энгэд Беди, Радж Бхансали, Ира Дюбей-Описание: Это история о Кайре, многообещающем кинематографисте, которая находится в поисках идеальной жизни. Случайная встреча с терапевтом-диссидентом помогает ей обрести новую перспективу, когда она обнаруживает, что счастье — в поиске комфорта в несовершенстве жизни.-
Качество видео: DVDRip
Контейнер: AVI
Видео кодек: XviD
Аудио кодек: AC3
Видео: 720x304 (2.37:1), 23.976 fps, XviD build 67, 1636 kbps avg, 0.31 bit/pixel
Аудио: 48 kHz, AC3 Dolby Digital, 2/0 (L,R) ch, 224 kbps
Cубтитры: русские
Формат субтитров: softsub (SRT)
Доп. информация о субтитрах: внешние (только на песни)
Скажи жизни привет, а страхам — пока!
Гаури Шинде не перестает меня удивлять своим талантом легко и просто подавать на блюдце экрана столь сложные проблемы человека, его внутреннего душевного состояния и взаимоотношений.
В этом фильме идеально всё! Музыка, актеры, сюжет, герои, диалоги, юмор, драма. Нет ничего лишнего, но и не чувствуется, что чего-то не достает.
Если бы фильм вышел не 1200 экранах, а более 4000, как это бывает у топовых актеров как Шах Рукх Кхан, то сборы были бы больше, и фильм стал не просто хитом, а блокбастером. Но фильм этот не для всех, это не развлекательная история о юной девушке и ее психотерапевта. Здесь нет душераздирающей истории любви, экшена и прочих атрибутов жанра масала. Это духовно-интеллектуальное кино, совсем необычное для индийского кинематографа. Поэтому его могут смотреть даже не индоманы.
Кайра, или Кока, как ее называют друзья и родные, в исполнении Алии Бхатт, была потрясающей. Талант раскрывается все больше и лучше. Действительно, когда кажется, что в жизни все идеально, все хорошо, от чего могут быть проблемы? Зачем она такая? Уважение к Алие Бхатт у меня появилось еще чуть раньше за ее другие роли. но и здесь она показала совершенно новый образ неуравновешенной девушки, которая то и дело бросает своих парней.
Джихангир Кхан (Шахрукх Кхан) помогает ей расплести цепи, в которых она запуталась, сначала тщательно заковав себя. И, наверно, лучше Короля Болливуда, неотразимого Шаха, никто бы не смог передать роль мудрого и зрелого, но очень простого и юморного психолога, который так гениально рассуждает о жизни и чувствах. Его особенная харизма создала на экране действительно необычную историю любви, как заявлял режиссер при релизе фильма. то необычные взаимоотношения, очень тонкие и очень милые.
Идея фильма, переданная Гаури Шинде, это не просто взаимоотношения людей (терапевт-клиант, девушка и ее бойфренды), а поднят вопрос отцов и детей, когда многие наши проблемы берут истоки из детских травм. И рассказ Кайры (этот долгий путь к признанию и раскрытию душевных травм) был очень трогательным. И не просто психологу, она сама себе призналась, почему она такая. И это очень важно уметь признаваться себе. Когда у героини был диалог в начале фильма с одним парнем, она этого еще не понимала.
-Зачем ты ходишь к мозгоправу? Чтобы признаться людям, что ты гей?
-Нет, чтобы признаться себе, что я — гей.
Фильм с глубокой психологической начинкой, которая удивительно легко, светло и просто была показана на экране. Впечатления от фильма остаются такие же воздушные, тоже хочется сказать «Я люблю тебя, жизнь! Привет, жизнь! Это я!»
Такие фильмы не только поднимают вопросы, о которых трудно говорить, трудно объяснить, но и сами по себе являются терапевтическими. Одни изречения доктора Джихангира многого стоят. Я даже не буду приводить цитаты, потому что это нужно услышать, особенно из уст ШахРукх Кхана. Как он это говорит, с каким выражением, голосом, в каком моменте. Все эти детали очень важны и действенны!
Отдельная похвала музыкальному сопровождению, которая очень хорошо передавала все оттенки эмоций героев. И даже сама по себе любая песня из фильма очень мелодичная и приятная.
Скажу еще о второстепенных героях. Все были идеальны! Появление на экране Кунила Капура просто еще один подарок. А в конце, специально приглашенный актер станет еще одним приятным сюрпризом. Так что досматривать фильм будете точно с хорошим настроением и приятными мыслями, напевая Dear Zindagi.
10+ из 10
Общее
Полное имя : J:\Дорогая жизнь Dear Zindagi (2016) DVDRip\Dear Zindagi.2016.DVDRip.[pirat.ca]\Dear Zindagi.2016.DVDRip.[pirat.ca].avi
Формат : AVI
Формат/Информация : Audio Video Interleave
Размер файла : 1,96 Гбайт
Продолжительность : 2 ч. 30 м.
Общий поток : 1870 Кбит/сек
Программа кодирования : VirtualDubMod 1.5.10.3 (build 2550/release)
Библиотека кодирования : VirtualDubMod build 2550/release
Видео
Идентификатор : 0
Формат : MPEG-4 Visual
Профиль формата : Advanced [email protected]
Параметр BVOP формата : 2
Параметр QPel формата : Нет
Параметр GMC формата : Без точки перехода
Параметр матрицы формата : Default (H.263)
Идентификатор кодека : XVID
Идентификатор кодека/Подсказка : XviD
Продолжительность : 2 ч. 30 м.
Битрейт : 1637 Кбит/сек
Ширина : 720 пикселей
Высота : 304 пикселя
Соотношение сторон : 2,35:1
Частота кадров : 23,976 (24000/1001) кадра/сек
Цветовое пространство : YUV
Субдискретизация насыщенности : 4:2:0
Битовая глубина : 8 бит
Тип развёртки : Прогрессивная
Метод сжатия : С потерями
Бит/(Пиксели*Кадры) : 0.312
Размер потока : 1,72 Гбайт (88%)
Библиотека кодирования : XviD 67
Аудио
Идентификатор : 1
Формат : AC-3
Формат/Информация : Audio Coding 3
Расширение режима : CM (complete main)
Параметр Endianness формата : Big
Идентификатор кодека : 2000
Продолжительность : 2 ч. 30 м.
Вид битрейта : Постоянный
Битрейт : 224 Кбит/сек
Каналы : 2 канала
Расположение каналов : Front: L R
Частота : 48,0 КГц
Частота кадров : 31,250 кадров/сек (1536 spf)
Метод сжатия : С потерями
Размер потока : 240 Мбайт (12%)
Выравнивание : Разделение по промежуткам
Продолжительность промежутка : 42 мс. (1,00 видеокадр)
Время предзагрузки промежутка : 500 мс.
Download / Скачать

Хотите скачать бесплатно? Зарегистрируйтесь на сайте (ссылка на регистрацию). Pirat.ca - самый быстрый торрент трекер в рунете!

Как скачивать  ·   Что такое торрент  ·   Рейтинг и ограничения

flesh_208

Флибустьер

Пост 24-Окт-2018 09:51 (спустя 1 год 9 месяцев)

[Q] 

Эх, у нас с женой сегодня вечер ИНДИЙСКОГО.)
[Профиль]  [ЛС] 
Показать сообщения:    
Ответить на тему

Текущее время: Сегодня 03:38

Часовой пояс: GMT + 4



Вы не можете начинать темы
Вы не можете отвечать на сообщения
Вы не можете редактировать свои сообщения
Вы не можете удалять свои сообщения
Вы не можете голосовать в опросах
Вы не можете прикреплять файлы к сообщениям
Вы не можете скачивать файлы

Майнать ▼