Спецотряд «Форс» 2 / Force 2 (Абхинай Део / Abhinay Deo) [2016 г., боевик, триллер, криминал, детектив, приключения, DVDRip] MVO + Sub (Rus, только на песни)

Ответить на тему
 
Автор
Сообщение

Пост 26-Дек-2016 04:29

[Q] 

somik

-Спецотряд «Форс» 2 / Force 2-- Производство: Индия
Год выпуска: 2016 г.
Жанр: боевик, триллер, криминал, детектив, приключения
Продолжительность: 02:03:42
Мировая премьера: 17 ноября 2016
Перевод: Любительский (многоголосый, закадровый)
Режиссер: Абхинай Део / Abhinay Deo-В ролях: Джон Абрахам, Сонакши Синха, Тахир Радж Бхасин, Адиль Хуссэйн, Бьорн Фрайберг, Цогбаатар Бацориг, Фредди Дарувала, Боман Ирани-Описание: Спустя пять лет после событий первой ленты неизвестный террорист начинает истреблять агентов индийской внешней разведки, работающих в Восточной Европе. Заместитель старшего инспектора Яшвардхан срочно отправляется в Будапешт, чтобы выйти на след преступника.
Озвучка: Давид Петросян, Михаил Цареградский, Денис Строев, Павел Ярощик и Маргарита Сахно-
Качество видео: DVDRip
Контейнер: AVI
Видео кодек: XviD
Аудио кодек: AC3
Видео: 720x304 (2.37:1), 23.976 fps, XviD build 64 ~1074 kbps avg, 0.20 bit/pixel
Аудио: 48 kHz, AC3 Dolby Digital, 3/2 (L,C,R,l,r) + LFE ch, 448 kbps
Cубтитры: русские
Формат субтитров: hardsub (неотключаемые)
Доп. информация о субтитрах: только на песни
Общее
Полное имя : D:\D\Спецотряд «Форс» 2 Force 2 (2016) DVDRip\Specotryad 2.2016.DVDRip.[pirat.ca].avi
Формат : AVI
Формат/Информация : Audio Video Interleave
Размер файла : 1,32 Гбайт
Продолжительность : 2 ч. 3 м.
Общий поток : 1532 Кбит/сек
Программа кодирования : VirtualDubMod 1.5.10.2 (build 2540/release)
Библиотека кодирования : VirtualDubMod build 2540/release
Видео
Идентификатор : 0
Формат : xvid
Идентификатор кодека : xvid
Продолжительность : 2 ч. 3 м.
Битрейт : 1075 Кбит/сек
Ширина : 720 пикселей
Высота : 304 пикселя
Соотношение сторон : 2,35:1
Частота кадров : 23,976 кадра/сек
Бит/(Пиксели*Кадры) : 0.205
Размер потока : 951 Мбайт (70%)
Аудио
Идентификатор : 1
Формат : AC-3
Формат/Информация : Audio Coding 3
Расширение режима : CM (complete main)
Параметр Endianness формата : Big
Идентификатор кодека : 2000
Продолжительность : 2 ч. 3 м.
Вид битрейта : Постоянный
Битрейт : 448 Кбит/сек
Каналы : 6 каналов
Расположение каналов : Front: L C R, Side: L R, LFE
Частота : 48,0 КГц
Частота кадров : 31,250 кадров/сек (1536 spf)
Метод сжатия : С потерями
Размер потока : 396 Мбайт (29%)
Выравнивание : Разделение по промежуткам
Продолжительность промежутка : 42 мс. (1,00 видеокадр)
Время предзагрузки промежутка : 500 мс.
Download / Скачать

Хотите скачать бесплатно? Зарегистрируйтесь на сайте (ссылка на регистрацию). Pirat.ca - самый быстрый торрент трекер в рунете!

Как скачивать  ·   Что такое торрент  ·   Рейтинг и ограничения

zvernight

Гроза морей

Пост 26-Дек-2016 11:22 (спустя 6 часов)

[Q] 

чувак справа на постере на Петра Фёдорова похож, который из Ледохода
[Профиль]  [ЛС] 

flesh_208

Флибустьер

Пост 24-Окт-2018 09:52 (спустя 1 год 9 месяцев)

[Q] 

Гляну - с, пока в отпуске)
[Профиль]  [ЛС] 
Показать сообщения:    
Ответить на тему

Текущее время: Сегодня 09:49

Часовой пояс: GMT + 4



Вы не можете начинать темы
Вы не можете отвечать на сообщения
Вы не можете редактировать свои сообщения
Вы не можете удалять свои сообщения
Вы не можете голосовать в опросах
Вы не можете прикреплять файлы к сообщениям
Вы не можете скачивать файлы

Майнать ▼