Нирджа / Neerja (Рам Мадхвани / Ram Madhvani) [2016 г., триллер, драма, биография, HDRip] DVO

Ответить на тему
 
Автор
Сообщение

Пост 24-Дек-2016 19:24

[Q] 

somik

-Нирджа / Neerja-- Производство: Индия
Год выпуска: 2016 г.
Жанр: триллер, драма, биография
Продолжительность: 01:56:42
Мировая премьера: 19 февраля 2016
Перевод: Профессиональный (двухголосый, закадровый)
Режиссер: Рам Мадхвани / Ram Madhvani-В ролях: Партх Акеркар, Bobby Arora, Rohit Assija, Шабана Азми, Ali Baldiwala, Freny Bhagat, Sonal Paresh Borkhatariya, Dolly Bose, Madhu Anand Chandhock, Rajan Chhabra-Описание: Фильм основан на истории жизни отважной стюардессы Нирджи Бханот, которая пожертвовала собой, защищая 359 пассажиров на борту рейса 73 авиакомпании Pan Am в 1986 году, захваченного членами террористической организации.-
Качество видео: HDRip
Контейнер: AVI
Видео кодек: XviD
Аудио кодек: AC3
Видео: 720x304 (2.37:1), 25 fps, XviD build 67, 1589 kbps avg, 0.33 bit/pixel
Аудио: 48,0 КГц, AC3, 2 ch, 192 Кбит/с
Cубтитры: отсутствуют
Поучительно
Долго ждала выхода этого фильма, все-таки история основана на реальных событиях. Снято хорошо, камера дергается и нагоняет волнение, красивые блики и оригинальная атмосферная музыка. В общем, Индия умеет снимать!
Сонам Капур — сразу после фильмов «Красотка» и «Неуловимый Прем» она привлекла мое внимание. У нее есть дар актерского мастерства. В данном фильме ее дрож буквально переходит на зрителя и вы начинаете вместе с ней думать о способах спасения людей. Сонам вообще похожа на Ниржу, это делает кинокартину еще интереснее. И короткие волосы ей к лицу.
Больше никаких знаменитых актеров в фильме нет, но это не значит, что фильм плох, его вытягивает Сонам и интересный сюжет, видно, что снимали реальную историю. Фильм держит в напряжении до самого конца. Так что, если вы сомневаетесь, смотреть фильм или нет, дам совет: смотрите, конечно! Это история о самопожертвовании, любви к людям и посвященности своей работе. Даже не знаю, что бы сделала я на ее месте, наверное просто сидела бы в углу. Храбрая девушка, ничего не скажешь.
Девушка, награжденная высшей военной наградой Индии за храбрость, проявленную в мирное время.
Фильм Рама Мадхвани » Нирджа»- это не совсем то индийское кино, к которому все привыкли. Здесь никто не поет и не танцует, здесь нет роковой любви и невероятных препятствий на ее пути, это трагическая история, основанная на реальных событиях, случившихся 30 лет назад в пакистанском аэропорту Карачи, где самолет, следовавший по маршруту Бомбей- Нью-Йорк, совершив транзитную посадку, был захвачен террористами. 22-летняя стюардесса Нирджа Бханот, для которой этот рейс был первым в качестве старшего борт-проводника, успела предупредить пилотов и те, следуя протоколу, покинули борт. 17 часов террористы удерживали самолет, требуя пилотов, и все это время Нирджа успокаивала и помогала пассажирам, пытаясь всеми возможными способами спасти как можно больше жизней.
В фильме нет и эффектных драк, перестрелок и погонь, так что любители экшена могут этот фильм пропустить. Это драма, где основная история перемежается воспоминаниями героини о не самом удачном замужестве и о родителях, которые воспитывали ее быть храброй в любой ситуации.
В фильме очень много актеров, но ни на ком из пассажиров или захватчиков внимание не акцентируется, основной упор сделан на актрису Сонам Капур, которая весьма успешно справилась с ролью, показав человека, которому страшно и больно, но который может, утерев слезы дрожащими руками, успокоить других, потому что им еще страшнее.
Жизнь должна быть яркой, а не долгой!
Фильм основан на реальных событиях и этим всё сказано. Когда начинаешь смотреть фильм, то кажется, что он будет нудноватым и в стиле типичного индийского кино, но смотря фильм забываешь даже о том, что ты просто смотришь фильм, тебя как будто переносит в прошлое и ты переживаешь все эти события вместе с Нирджой. Актриса игравшая Нирджу очень хорошо умеет передавать эмоции, когда смотришь фильм, то невольно ощущаешь те же эмоции, что и её героиня. Лично я первый раз эту актрису увидел в фильме и меня она впечатлила. Отдельно стоит отметить, что она действительно внешне похожа с Нирджой Бханот, что ещё больше добавляет реализма фильму.
Сама история Нирджи учит самопожертвованию и смелости, она действительно совершила подвиг, на который далеко не каждый человек может решиться, а особенно в её молодом возрасте. Профессионализм ли это или самопожертвование? Не знаю, как по мне это в первую очередь именно сострадание к окружающим, чего сейчас так не хватает в наше время. Нирджа является примером для людей любого возраста, примером смелости, примером сострадания, примером, который после просмотра фильма врезается в память навсегда. Хороший ход этого фильма в том, что в титрах показывают реальные фото Нирджы, очень часто после просмотра фильма на реальных событиях становится интересно увидеть фото того или иного человека, а тут создатели предоставляют эти фото и смотря на них одолевает грусть от того, что такой юной девушке пришлось пожертвовать своей жизнью из-за каких-то глупых идей кучки недалёких людей, которые захватили самолёт. Вечная память Нирдже Бханот!
10 из 10
Общее
Полное имя : J:\Нирджа Neerja (2016)\Neerja.2016.HDRip.[pirat.ca].avi
Формат : AVI
Формат/Информация : Audio Video Interleave
Размер файла : 1,46 Гбайт
Продолжительность : 1 ч. 56 м.
Общий поток : 1791 Кбит/сек
Программа кодирования : VirtualDubMod 1.5.10.2 (build 2540/release)
Библиотека кодирования : VirtualDubMod build 2540/release
Видео
Идентификатор : 0
Формат : MPEG-4 Visual
Профиль формата : Advanced [email protected]
Параметр BVOP формата : 2
Параметр QPel формата : Нет
Параметр GMC формата : Без точки перехода
Параметр матрицы формата : Выборочная
Идентификатор кодека : XVID
Идентификатор кодека/Подсказка : XviD
Продолжительность : 1 ч. 56 м.
Битрейт : 1589 Кбит/сек
Ширина : 720 пикселей
Высота : 304 пикселя
Соотношение сторон : 2,35:1
Частота кадров : 25,000 кадров/сек
Цветовое пространство : YUV
Субдискретизация насыщенности : 4:2:0
Битовая глубина : 8 бит
Тип развёртки : Прогрессивная
Метод сжатия : С потерями
Бит/(Пиксели*Кадры) : 0.290
Размер потока : 1,30 Гбайт (89%)
Библиотека кодирования : XviD 67
Аудио
Идентификатор : 1
Формат : AC-3
Формат/Информация : Audio Coding 3
Расширение режима : CM (complete main)
Параметр Endianness формата : Big
Идентификатор кодека : 2000
Продолжительность : 1 ч. 56 м.
Вид битрейта : Постоянный
Битрейт : 192 Кбит/сек
Каналы : 2 канала
Расположение каналов : Front: L R
Частота : 48,0 КГц
Частота кадров : 31,250 кадров/сек (1536 spf)
Метод сжатия : С потерями
Размер потока : 160 Мбайт (11%)
Выравнивание : Разделение по промежуткам
Продолжительность промежутка : 40 мс. (1,00 видеокадр)
Время предзагрузки промежутка : 500 мс.
Download / Скачать

Хотите скачать бесплатно? Зарегистрируйтесь на сайте (ссылка на регистрацию). Pirat.ca - самый быстрый торрент трекер в рунете!

Как скачивать  ·   Что такое торрент  ·   Рейтинг и ограничения

flesh_208

Флибустьер

Пост 24-Окт-2018 09:53 (спустя 1 год 9 месяцев)

[Q] 

НАдеюсь, что петь они там не будут
[Профиль]  [ЛС] 
Показать сообщения:    
Ответить на тему

Текущее время: Сегодня 03:38

Часовой пояс: GMT + 4



Вы не можете начинать темы
Вы не можете отвечать на сообщения
Вы не можете редактировать свои сообщения
Вы не можете удалять свои сообщения
Вы не можете голосовать в опросах
Вы не можете прикреплять файлы к сообщениям
Вы не можете скачивать файлы

Майнать ▼