Студент года / Student of the Year (Каран Джохар / Karan Johar) [2012 г., мелодрама, комедия, BDRip] MVO + Sub (Rus)

Ответить на тему
 
Автор
Сообщение

Пост 05-Дек-2016 02:37

[Q] 

somik

-Студент года / Student of the Year-- Производство: Индия
Год выпуска: 2012 г.
Жанр: мелодрама, комедия
Продолжительность: 02:25:55
Мировая премьера: 19 октября 2012
Российская премьера: 23 января 2014, «Красная Шапка Фильмс»
Перевод: Любительский (многоголосый, закадровый) [ICG ]
Режиссер: Каран Джохар / Karan Johar-В ролях: Сидхартх Мальхотра, Варун Дхаван, Алия Бхатт, Риши Капур, Сана Саид, Манси Рачх, Кайозе Ирани, Рам Капур, Ронит Рой-Описание: Они молоды, амбициозны и еще не знают вкуса поражений. Но когда-нибудь им придется столкнуться с настоящей взрослой жизнью, и почему бы не сделать это в новом учебном году, когда «проказник» декан дает возможность только одному из своих студентов стать лучшим из лучших, стать почетным студентом года. На фоне массового помешательства на учебе и спорте происходят и другие не менее важные события. Например, любимчик девушек Рохан Нанда сталкивается с соперником в лице скромного и серьезного Абхи Сингха. Но если противостояние этих парней между собой со временем и переросло в крепкую дружбу, то что будет, когда в их мир внесет разлад любовь? Удастся ли первой красавице колледжа Шанайе случайно не разрушить эти отношения? Ведь теперь ее сердце, кажется, принадлежит не только одному из них…-
Качество видео: BDRip
Контейнер: AVI
Видео кодек: XviD
Аудио кодек: AC3
Видео: 720x304 (2.37:1), 24 fps, XviD MPEG-4 ~1467 kbps avg, 0.28 bit/pixel
Аудио: 48 kHz, AC3 Dolby Digital, 3/2 (L,C,R,l,r) + LFE ch, ~448 kbps
Cубтитры: русские
Формат субтитров: softsub (SRT)
Доп. информация о субтитрах: внешние (полные и на песни)
Идеально.
Этот чудесный фильм о настоящей дружбе. В истории индийского кино, я еще не видела более яркого и красочного проекта. Могу только сказать, что Каран Джохар дал хороший старт в своей режиссуре.
1) Я влюбилась в игру восходящих звездочек Болливуда. В героине Алии Бхатт — Шанайе, я увидела частичку себя. Можно сказать, что она была глупа и думала только о мировых брендах, но все равно, во второй половине фильма она как и любая девушка была ранима и скромна.
2) Дружба двух парней: Рохана и Абхи могла бы послужить хорошим образцом для дружбы многих других людей!
3) Пусть этот фильм, конечно и не вошел в число самых кассовых киноблюд, но он покорил многие сердца своей музыкой. Ведь недаром песня «Radha» — является хитом 2012 года.
P.S. По-моему неплохо не так ли?
Я выражаю особую благодарность всем создателям этого фильма и мне очень бы хотелось вскоре увидеть проект наподобие «Student of the Year»
10 из 10
Общее
Полное имя : E:\Студент года Student of the Year (2012)\Student.of.the.Year.2012.BDRip.Rus.Original.ICG.BT.GF\Student of the Year.2012.BDRip.ICG.[pirat.ca].avi
Формат : AVI
Формат/Информация : Audio Video Interleave
Размер файла : 1,96 Гбайт
Продолжительность : 2 ч. 25 м.
Общий поток : 1925 Кбит/сек
Программа кодирования : VirtualDubMod 1.5.10.3 (build 2550/release)
Библиотека кодирования : VirtualDubMod build 2550/release
Видео
Идентификатор : 0
Формат : MPEG-4 Visual
Профиль формата : Advanced [email protected]
Параметр BVOP формата : 1
Параметр QPel формата : Нет
Параметр GMC формата : Без точки перехода
Параметр матрицы формата : Выборочная
Идентификатор кодека : XVID
Идентификатор кодека/Подсказка : XviD
Продолжительность : 2 ч. 25 м.
Битрейт : 1467 Кбит/сек
Ширина : 720 пикселей
Высота : 304 пикселя
Соотношение сторон : 2,35:1
Частота кадров : 24,000 кадра/сек
Цветовое пространство : YUV
Субдискретизация насыщенности : 4:2:0
Битовая глубина : 8 бит
Тип развёртки : Прогрессивная
Метод сжатия : С потерями
Бит/(Пиксели*Кадры) : 0.279
Размер потока : 1,50 Гбайт (76%)
Библиотека кодирования : XviD 64
Аудио
Идентификатор : 1
Формат : AC-3
Формат/Информация : Audio Coding 3
Расширение режима : CM (complete main)
Параметр Endianness формата : Big
Идентификатор кодека : 2000
Продолжительность : 2 ч. 25 м.
Вид битрейта : Постоянный
Битрейт : 448 Кбит/сек
Каналы : 6 каналов
Расположение каналов : Front: L C R, Side: L R, LFE
Частота : 48,0 КГц
Частота кадров : 31,250 кадров/сек (1536 spf)
Метод сжатия : С потерями
Размер потока : 468 Мбайт (23%)
Выравнивание : Разделение по промежуткам
Продолжительность промежутка : 42 мс. (1,00 видеокадр)
Время предзагрузки промежутка : 500 мс.
Download / Скачать

Хотите скачать бесплатно? Зарегистрируйтесь на сайте (ссылка на регистрацию). Pirat.ca - самый быстрый торрент трекер в рунете!

Как скачивать  ·   Что такое торрент  ·   Рейтинг и ограничения

flesh_208

Флибустьер

Пост 24-Окт-2018 09:54 (спустя 1 год 10 месяцев)

[Q] 

Старый фильмец, забираю!!!
[Профиль]  [ЛС] 
Показать сообщения:    
Ответить на тему

Текущее время: Сегодня 09:22

Часовой пояс: GMT + 4



Вы не можете начинать темы
Вы не можете отвечать на сообщения
Вы не можете редактировать свои сообщения
Вы не можете удалять свои сообщения
Вы не можете голосовать в опросах
Вы не можете прикреплять файлы к сообщениям
Вы не можете скачивать файлы

Майнать ▼