Как приручить дракона / How to Train Your Dragon (Дин ДеБлуа / Dean DeBlois, Крис Сандерс / Chris Sanders) [2010 г., Компьютерная анимация, Приключения, Комедия, BDRip-AVC] AVO (Гаврилов, Живов, Сербин) + Subs (Rus)

Ответить на тему
 
Автор
Сообщение

Пост 02-Фев-2014 02:53

[Q] 

anton966

Как приручить дракона / How to Train Your Dragon«One adventure will change two worlds»- Год выпуска: 2010
Производство: США
Жанр: Компьютерная анимация, Приключения, Комедия
Продолжительность: 01:37:51
Перевод: Авторский (одноголосый, закадровый) Гаврилов, Живов, Сербин
Субтитры: русские, *.srt (BD CEE, voronine)
Режиссер: Дин ДеБлуа / Dean DeBlois, Крис Сандерс / Chris Sanders
Персонажи: Джей Барушель (Hiccup), Джерард Батлер (Stoick), Крэйг Фергюсон (Gobber), Америка Феррера (Astrid), Джона Хилл (Snotlout), Кристофер Минц-Плассе (Fishlegs), ТиДжей Миллер (Tuffnut), Кристен Уиг (Ruffnut), Робин Аткин Даунс (Ack), Филип МакГрэйд (Starkard), Кирон Эллиотт (Hoark the Haggard), Дэвид Теннант (Spitelout)
Описание: Вы узнаете историю подростка Иккинга, которому не слишком близки традиции его героического племени, много лет ведущего войну с драконами. Мир Иккинга переворачивается с ног на голову, когда он неожиданно встречает дракона Беззубика, который поможет ему и другим викингам увидеть привычный мир с совершенно другой стороны…
Мультфильм снят режиссёрами Крисом Сандерсом и Дином Деблуа ("Лило и Стич") по мотивам одноимённой серии книг британской детской писательницы Крессиды Коуэлл.


- За перевода Ю. Живова спасибо пользователям
e180 - Savely, ZeDOK, dir, chontvari, Valen;
hdtracker - ultrajeka, Xerman13, Role, _MyxAmoP_;
widescreen - ilgizik01;
- работа с дорожкой Ю. Живова Skazhutin, за что ему огромное спасибо;
Торрент перезалит! Всё новое.
Источник/Качество: BDRip-AVC
Контейнер: MKV
Видео кодек: MPEG-4 AVC / x.264
Видео: 1200x510 / 2624 kbps / 23,976 fps / 2,35:1 / High Profile 4.1
Аудио #1: 48 kHz, AC3 Dolby Digital, 3/2 (L,C,R,l,r) + LFE ch, ~448 kbps avg - Гаврилов
Аудио #2: 48 kHz, AC3 Dolby Digital, 3/2 (L,C,R,l,r) + LFE ch, ~448 kbps avg - Живов
Аудио #3: 48 kHz, AC3 Dolby Digital, 3/2 (L,C,R,l,r) + LFE ch, ~448 kbps avg - Сербин
Формат : Matroska
Версия формата : Version 4
Размер файла : 2,71 Гбайт
Продолжительность : 1 ч. 37 м.
Общий поток : 3969 Кбит/сек
Название фильма : How To Train Your Dragon.2010.BDRip-AVC.Gavrilov.Zhivov.Serbin.Subs -=anton966=-
Дата кодирования : UTC 2018-10-24 13:50:57
Программа кодирования : mkvmerge v8.3.0 ('Over the Horizon') 64bit
Библиотека кодирования : libebml v1.3.1 + libmatroska v1.4.2
Видео
Идентификатор : 1
Формат : AVC
Формат/Информация : Advanced Video Codec
Профиль формата : [email protected]
Настройки формата : CABAC / 10 Ref Frames
Параметр CABAC формата : Да
Параметр RefFrames формата : 10 кадров
Идентификатор кодека : V_MPEG4/ISO/AVC
Продолжительность : 1 ч. 37 м.
Битрейт : 2625 Кбит/сек
Ширина : 1200 пикселей
Высота : 510 пикселей
Соотношение сторон : 2,35:1
Режим частоты кадров : Постоянный
Частота кадров : 23,976 (24000/1001) кадра/сек
Цветовое пространство : YUV
Субдискретизация насыщенности : 4:2:0
Битовая глубина : 8 бит
Тип развёртки : Прогрессивная
Бит/(Пиксели*Кадры) : 0.179
Размер потока : 1,79 Гбайт (66%)
Заголовок : How To Train Your Dragon.2010.BDRip-AVC
Библиотека кодирования : x264 core 152 r2851kMod ba24899
Настройки программы : cabac=1 / ref=10 / deblock=1:-3:-3 / analyse=0x3:0x113 / me=umh / subme=10 / psy=1 / fade_compensate=0.00 / psy_rd=1.05:0.15 / mixed_ref=1 / me_range=32 / chroma_me=1 / trellis=2 / 8x8dct=1 / cqm=0 / deadzone=21,11 / fast_pskip=0 / chroma_qp_offset=-3 / threads=6 / lookahead_threads=1 / sliced_threads=0 / nr=0 / decimate=1 / interlaced=0 / bluray_compat=0 / constrained_intra=0 / bframes=8 / b_pyramid=2 / b_adapt=2 / b_bias=0 / direct=1 / weightb=1 / open_gop=0 / weightp=2 / keyint=250 / keyint_min=23 / scenecut=40 / intra_refresh=0 / rc_lookahead=40 / rc=crf / mbtree=0 / crf=19.0000 / qcomp=0.60 / qpmin=0 / qpmax=69 / qpstep=4 / vbv_maxrate=40000 / vbv_bufsize=62500 / crf_max=0.0 / nal_hrd=none / filler=0 / ip_ratio=1.40 / pb_ratio=1.23 / aq=3:0.80
Язык : English
Default : Да
Forced : Нет
Цветовой диапазон : Limited
Основные цвета : BT.709
Характеристики трансфера : BT.709
Коэффициенты матрицы : BT.709
Аудио #1
Идентификатор : 2
Формат : AC-3
Формат/Информация : Audio Coding 3
Коммерческое название : Dolby Digital
Идентификатор кодека : A_AC3
Продолжительность : 1 ч. 37 м.
Вид битрейта : Постоянный
Битрейт : 448 Кбит/сек
Каналы : 6 каналов
Channel layout : L R C LFE Ls Rs
Частота : 48,0 КГц
Частота кадров : 31,250 кадров/сек (1536 SPF)
Битовая глубина : 16 бит
Метод сжатия : С потерями
Размер потока : 314 Мбайт (11%)
Заголовок : Gavrilov
Язык : Russian
ServiceKind/String : Complete Main
Default : Да
Forced : Нет
Аудио #2
Идентификатор : 3
Формат : AC-3
Формат/Информация : Audio Coding 3
Коммерческое название : Dolby Digital
Идентификатор кодека : A_AC3
Продолжительность : 1 ч. 37 м.
Вид битрейта : Постоянный
Битрейт : 448 Кбит/сек
Каналы : 6 каналов
Channel layout : L R C LFE Ls Rs
Частота : 48,0 КГц
Частота кадров : 31,250 кадров/сек (1536 SPF)
Битовая глубина : 16 бит
Метод сжатия : С потерями
Размер потока : 314 Мбайт (11%)
Заголовок : Zhivov
Язык : Russian
ServiceKind/String : Complete Main
Default : Нет
Forced : Нет
Аудио #3
Идентификатор : 4
Формат : AC-3
Формат/Информация : Audio Coding 3
Коммерческое название : Dolby Digital
Идентификатор кодека : A_AC3
Продолжительность : 1 ч. 37 м.
Вид битрейта : Постоянный
Битрейт : 448 Кбит/сек
Каналы : 6 каналов
Channel layout : L R C LFE Ls Rs
Частота : 48,0 КГц
Частота кадров : 31,250 кадров/сек (1536 SPF)
Битовая глубина : 16 бит
Метод сжатия : С потерями
Размер потока : 314 Мбайт (11%)
Заголовок : Serbin
Язык : Russian
ServiceKind/String : Complete Main
Default : Нет
Forced : Нет
Текст #1
Идентификатор : 5
Формат : UTF-8
Идентификатор кодека : S_TEXT/UTF8
Идентификатор кодека/Информация : UTF-8 Plain Text
Продолжительность : 1 ч. 36 м.
Битрейт : 70 бит/сек
ElementCount : 872
Размер потока : 50,0 Кбайт (0%)
Заголовок : BD CEE
Язык : Russian
Default : Нет
Forced : Нет
Текст #2
Идентификатор : 6
Формат : UTF-8
Идентификатор кодека : S_TEXT/UTF8
Идентификатор кодека/Информация : UTF-8 Plain Text
Продолжительность : 1 ч. 28 м.
Битрейт : 77 бит/сек
ElementCount : 887
Размер потока : 50,6 Кбайт (0%)
Заголовок : voronine
Язык : Russian
Default : Нет
Forced : Нет
Меню
00:00:00.000 : :Chapter 1
00:08:39.811 : :Chapter 2
00:11:31.983 : :Chapter 3
00:15:11.035 : :Chapter 4
00:21:57.107 : :Chapter 5
00:27:41.702 : :Chapter 6
00:33:14.201 : :Chapter 7
00:39:07.136 : :Chapter 8
00:43:28.731 : :Chapter 9
00:47:08.367 : :Chapter 10
00:49:47.193 : :Chapter 11
00:59:55.801 : :Chapter 12
01:04:47.383 : :Chapter 13
01:09:28.164 : :Chapter 14
01:12:38.187 : :Chapter 15
01:23:26.043 : :Chapter 16
01:28:54.496 : :Chapter 17
avs [info]: 1200x510p 1:1 @ 24000/1001 fps (cfr)
x264 [info]: using SAR=1/1
x264 [info]: using cpu capabilities: MMX2 SSE2Fast SSSE3 SSE4.2 AVX XOP FMA3 BMI1
x264 [info]: profile High, level 4.1
x264 [info]: cabac=1 ref=10 deblock=1:-3:-3 analyse=0x3:0x113 me=umh subme=10 psy=1 fade_compensate=0.00 psy_rd=1.05:0.15 mixed_ref=1 me_range=32 chroma_me=1 trellis=2 8x8dct=1 cqm=0 deadzone=21,11 fast_pskip=0 chroma_qp_offset=-3 threads=6 lookahead_threads=1 sliced_threads=0 nr=0 decimate=1 interlaced=0 bluray_compat=0 constrained_intra=0 bframes=8 b_pyramid=2 b_adapt=2 b_bias=0 direct=1 weightb=1 open_gop=0 weightp=2 keyint=250 keyint_min=23 scenecut=40 intra_refresh=0 rc_lookahead=40 rc=crf mbtree=0 crf=19.0000 qcomp=0.60 qpmin=0 qpmax=69 qpstep=4 vbv_maxrate=40000 vbv_bufsize=62500 crf_max=0.0 nal_hrd=none filler=0 ip_ratio=1.40 pb_ratio=1.23 aq=3:0.80
x264 [info]: frame I:1262 Avg QP:16.41 size: 89812
x264 [info]: frame P:36290 Avg QP:18.29 size: 25396
x264 [info]: frame B:103212 Avg QP:21.25 size: 8635
x264 [info]: consecutive B-frames: 3.5% 4.2% 17.8% 27.0% 17.7% 26.0% 1.9% 0.7% 1.1%
x264 [info]: mb I I16..4: 7.0% 73.3% 19.7%
x264 [info]: mb P I16..4: 2.1% 18.0% 2.5% P16..4: 34.5% 20.3% 12.9% 0.0% 0.0% skip: 9.7%
x264 [info]: mb B I16..4: 0.3% 1.9% 0.4% B16..8: 35.4% 10.0% 3.1% direct: 5.2% skip:43.8% L0:41.0% L1:42.9% BI:16.0%
x264 [info]: 8x8 transform intra:78.0% inter:60.0%
x264 [info]: coded y,uvDC,uvAC intra: 79.5% 70.0% 45.9% inter: 18.5% 13.2% 3.6%
x264 [info]: i16 v,h,dc,p: 21% 16% 10% 52%
x264 [info]: i8 v,h,dc,ddl,ddr,vr,hd,vl,hu: 9% 11% 9% 9% 12% 11% 13% 11% 15%
x264 [info]: i4 v,h,dc,ddl,ddr,vr,hd,vl,hu: 7% 8% 5% 9% 17% 13% 15% 11% 14%
x264 [info]: i8c dc,h,v,p: 39% 29% 16% 15%
x264 [info]: Weighted P-Frames: Y:5.5% UV:3.9%
x264 [info]: ref P L0: 56.3% 11.1% 13.2% 5.9% 3.7% 3.0% 2.4% 1.5% 1.4% 1.4% 0.2% 0.0%
x264 [info]: ref B L0: 80.3% 8.6% 4.8% 2.2% 1.6% 1.0% 0.9% 0.5% 0.2%
x264 [info]: ref B L1: 95.6% 4.4%
x264 [info]: kb/s:2624.73
Download / Скачать

Хотите скачать бесплатно? Зарегистрируйтесь на сайте (ссылка на регистрацию). Pirat.ca - самый быстрый торрент трекер в рунете!

Как скачивать  ·   Что такое торрент  ·   Рейтинг и ограничения



Последний раз редактировалось: anton966 (2018-10-25 07:11), всего редактировалось 5 раз(а)

gross1978

7671

Пост 02-Фев-2014 10:43 (спустя 7 часов)

[Q] 

Мой любимый размерчик. Спасибо огромное.

_________________
Употребляйте правильно слова, и вы избавите мир от половины недоразумений (Р.Декарт).
Если у Вас есть переводы в авторском, которых нет в моих раздачах и желание ими поделиться, пишите, добавим:)
[Профиль]  [ЛС] 

anton966 ®

10973

Пост 02-Фев-2014 11:18 (спустя 34 минуты)

[Q] 

gross1978,
Не за что. Приходи есчо!

_________________
" ...потому что во многой мудрости много печали; и кто умножает познания, умножает скорбь" ( Еккл 1:17,18)
[Профиль]  [ЛС] 

stivgsm

Пост 17-Дек-2014 01:38 (спустя 10 месяцев 14 дней)

[Q] 

спасибо!! Раздающему респект!
[Профиль]  [ЛС] 

Bogdan_G

Лоцман

Пост 06-Янв-2015 22:50 (спустя 20 дней)

[Q] 

Поддайте жару! Скорость как у черепахи
[Профиль]  [ЛС] 

fex

Морской Волк

Пост 04-Фев-2015 00:28 (спустя 28 дней)

[Q] 

Супер мультик - ребенок в восторге.

_________________
Всегда телефон в микроволновке заряжаю, на две минуты ставлю. Оперативку отлично очищает и удаляет системный мусор.
[Профиль]  [ЛС] 

anton966 ®

10973

Пост 24-Окт-2018 00:21 (спустя 3 года 8 месяцев)

[Q] 

640366Супер мультик - ребенок в восторге.
Да я и сам в восторге!

_________________
" ...потому что во многой мудрости много печали; и кто умножает познания, умножает скорбь" ( Еккл 1:17,18)
[Профиль]  [ЛС] 

anton966 ®

10973

Пост 24-Окт-2018 10:18 (спустя 9 часов)

[Q] 

P.S. Решил переделать. Сегодня выложу новую версию.

_________________
" ...потому что во многой мудрости много печали; и кто умножает познания, умножает скорбь" ( Еккл 1:17,18)
[Профиль]  [ЛС] 

anton966 ®

10973

Пост 25-Окт-2018 02:33 (спустя 16 часов)

[Q] 

Торрент перезалит!

_________________
" ...потому что во многой мудрости много печали; и кто умножает познания, умножает скорбь" ( Еккл 1:17,18)
[Профиль]  [ЛС] 
Показать сообщения:    
Ответить на тему

Текущее время: Сегодня 22:16

Часовой пояс: GMT + 4



Вы не можете начинать темы
Вы не можете отвечать на сообщения
Вы не можете редактировать свои сообщения
Вы не можете удалять свои сообщения
Вы не можете голосовать в опросах
Вы не можете прикреплять файлы к сообщениям
Вы не можете скачивать файлы

Майнать ▼