[Jolly Roger] Туринская лошадь / A Torinói ló (Бела Тарр / Béla Tarr, Агнес Храницки / Ágnes Hranitzky) [2011 г., драма, DVDRip] MVO

Ответить на тему
 
Автор
Сообщение

Пост 26-Июл-2012 10:55

[Q] 

ara1205

-Туринская лошадь / A Torinói ló-- Год выпуска: 2011 г.
Мировая премьера: 15 февраля 2011
Российская премьера: 15 марта 2012
Дата выхода DVD: 12 июля 2012
Производство: США, Германия, Франция, Швейцария, Венгрия
Жанр: драма
Продолжительность: 02:28:15
Перевод: Профессиональный (многоголосый, закадровый)-Режиссер: Бела Тарр / Béla Tarr, Агнес Храницки / Ágnes Hranitzky-В ролях: Янош Держи, Эрика Бок, Михай Кормош, Ричи-Описание: В 1889 году на улице итальянского города Турина случилось странное происшествие. Кучер хлестал кнутом свою старую лошадь, которая отказывалась тронуться с места. Неожиданно к повозке подбежал хорошо одетый господин с пышными усами и обнял животное за шею, при этом горько зарыдав. Это был не кто иной, как всемирно известный философ Фридрих Ницше. Его с трудом увели от лошади, а когда привели домой, выяснилось, что он не в себе. Ницше поместили в лечебницу для душевнобольных, где он провел остаток жизни…
Но что же случилось с лошадью и ее хозяином? Об этом и расскажет фильм.
- --Качество видео: DVDRip
Формат видео: AVI
Видео кодек: XviD
Аудио кодек: AC3
Видео: 720x432, 25.000 fps, XviD, 1209 kbps avg, 0.155 bit/pixel
Аудио: 48 kHz, AC3 Dolby Digital, 2 ch, ~192 kbps avg-
General
Complete name : C:\Users\Ромик\Documents\[R.G. Jolly Roger]\Туринская лошадь\Turinskaya.loshad.2011.DVDRip.JRG.avi
Format : AVI
Format/Info : Audio Video Interleave
File size : 1.46 GiB
Duration : 2h 28mn
Overall bit rate : 1 411 Kbps
Writing application : VirtualDubMod 1.5.10.3 | www.virtualdub-fr.org || (build 2550/release)
Copyright : Jolly Roger by Pirat.CA
Video #0
ID : 0
Format : MPEG-4 Visual
Format profile : Advanced [email protected]
Format settings, BVOP : 2
Format settings, QPel : No
Format settings, GMC : No warppoints
Format settings, Matrix : Default (MPEG)
Codec ID : XVID
Codec ID/Hint : XviD
Duration : 2h 28mn
Bit rate : 1 209 Kbps
Width : 720 pixels
Height : 432 pixels
Display aspect ratio : 1.667
Frame rate : 25.000 fps
Color space : YUV
Chroma subsampling : 4:2:0
Bit depth : 8 bits
Scan type : Progressive
Compression mode : Lossy
Bits/(Pixel*Frame) : 0.155
Stream size : 1.25 GiB (86%)
Writing library : XviD 65
Audio #1
ID : 1
Format : AC-3
Format/Info : Audio Coding 3
Mode extension : CM (complete main)
Codec ID : 2000
Duration : 2h 28mn
Bit rate mode : Constant
Bit rate : 192 Kbps
Channel(s) : 2 channels
Channel positions : Front: L R
Sampling rate : 48.0 KHz
Bit depth : 16 bits
Compression mode : Lossy
Stream size : 204 MiB (14%)
Alignment : Split accross interleaves
Interleave, duration : 40 ms (1.00 video frame)
Interleave, preload duration : 500 ms
-
- --
Download / Скачать

Хотите скачать бесплатно? Зарегистрируйтесь на сайте (ссылка на регистрацию). Pirat.ca - самый быстрый торрент трекер в рунете!

Как скачивать  ·   Что такое торрент  ·   Рейтинг и ограничения

Metalheart

Гроза морей

Пост 26-Июл-2012 11:17 (спустя 21 минута)

[Q] 


_________________
[Профиль]  [ЛС] 

Jigsaw

Пост 26-Июл-2012 11:51 (спустя 34 минуты)

[Q] 

вот если бы фильм и назывался туринская плащаница и был бы про нее тогда вообще было бы супер, но все равно большое спасибо за труды
 

ГАВ

Лоцман

Пост 29-Июл-2012 22:44 (спустя 3 дня)

[Q] 

фигня
[Профиль]  [ЛС] 

xdgx

Флибустьер

Пост 03-Авг-2012 18:53 (спустя 4 дня)

[Q] 

[Профиль]  [ЛС] 

SerJ-AC

Морской Волк

Пост 03-Авг-2012 21:47 (спустя 2 часа 54 минуты)

[Q] 

[Профиль]  [ЛС] 

Роман Чистов

Шкипер

Пост 25-Июл-2018 14:24 (спустя 5 лет 11 месяцев)

[Q] 

Фильм странный и... страшный. (Для тех, кто знаком с философией и понимает, в чем суть дела). Жанровая принадлежность фильма, проглядывающая под поверхностным артхаусом - мистика/фильм-катастрофа. Для тех, кто имеет айкью ниже сотни или не утруждал себя чтением литературы сложнее букваря (или сложнее биржевых сводок) рассказываю:
был такой философ - Ницше. Он в одной своей книжке утверждал, что Бог умер и людям нужно самим справляться - без надежды на сильного дядю, который придет, научит и исправит. Собственно, фильм построен на знаменитом факте начала безумия Ницше, - якобы в Турине, увидев извозчика, стегающего кнутом вставшую неподвижно лошадь, Ницше подбежал к лошади и обняв ее за шею, начал рыдать, причитая, - "Мама, прости меня - я был не прав". По еще одной версии, - "Господи, прости меня - я был не прав". После чего на почти 2 десятилетия - до самой смерти - он погрузился в безумие. Так вот в фильме обыгрывается вариант, в котором Ницше все-же оказался прав и Бог таки умер. Что просходит дальше с РЕАЛЬНОСТЬЮ, созданной Творцом? Ведь Творец, - дух и разум которого пронизывали эту реальность прекратил существование. Это и показал нам режиссер - причем, на примере того самого извозчика и его лошади. По мнению режиссера, человек не способен заменить Бога и уподобиться ему - мы не верим в свои силы и всегда на что-то надеемся. Одни цыгане ни во что не верят - поэтому они радостно и беззаботно уезжают из поместья, в котором живет извозчик. Они зовут с собой дочь извозчика, но та предпочитает старый уклад жизни и остается с отцом. ...Режиссер здорово показал картину деградации реальности - вой ветра, депрессивные тучи, пыль в воздухе, безэмоциональные лица (за исключением цыган). Люди, пытающиеся жить по прежнему - как роботы, исполняя одно и то же раз за разом. А потом - конец. Тишина, исчезновение света и распад материи... Это мистический фильм катастрофа, который не оставляет никакой надежды и никаких шансов никому. Это даже не апокалипсис. Это Абсолютный Конец Всего. ...Можно ли было спастись этим несчастным? Да. Можно. Частица Бога живет в каждом из нас - и потому, стоило бы извозчику или его дочери выйти на улицу и произнести сакраментальное: "Да будет свет!" как наваливающуюся на реальность энтропию вновь озарила бы божественная искра воли и разума - и осиротевшая Вселенная вновь получила бы нового Бога. Но увы. Цыгане (атеисты, - люди изначально не верящие ни во что) не в силах осознать свое богоподобие, а извозчик с дочерью (обычные люди, зажатые в рамках повседневной бытовухи) не в силах в это поверить. И потому мир обречен...
Фильм достойный, серьезный и очень страшный. Но это не примитивный хоррор-скример. Здесь страх осознанный, проникающий в мозг постепенно и заполняющий его в самом конце.
...Вот такое мое скромное, пиратское мнение.
PS Здесь раздача не работает - пришлось качать с ДРУГОГО ресурса. Но отзыв пишу здесь ибо люблю пиратку.
[Профиль]  [ЛС] 

Су-34

Легенда

15878

Пост 28-Окт-2018 10:24 (спустя 3 месяца 2 дня)

[Q] 

и тишина!!!!
829345Здесь раздача не работает -
[Профиль]  [ЛС] 
Показать сообщения:    
Ответить на тему

Текущее время: Сегодня 20:43

Часовой пояс: GMT + 4



Вы не можете начинать темы
Вы не можете отвечать на сообщения
Вы не можете редактировать свои сообщения
Вы не можете удалять свои сообщения
Вы не можете голосовать в опросах
Вы не можете прикреплять файлы к сообщениям
Вы не можете скачивать файлы

Майнать ▼