Семейка Крудс / The Croods (Кирк де Микко / Kirk De Micco, Крис Сандерс / Chris Sanders) [2013, приключения, комедия, семейный, BDRip-AVC] AVO (Володарский, Сербин, Карповский) + Subs (Rus)

Ответить на тему
 
Автор
Сообщение

Пост 30-Окт-2018 05:38

[Q] 

anton966

Семейка Крудс / The Croods«Если они не эволюционируют, то станут историей»- Год выпуска: 2013
Производство: США
Жанр: Компьютерная анимация, Приключения, Комедия
Продолжительность: 01:38:37
Перевод: Авторский (одноголосый, закадровый) Володарский, Сербин, Карповский
Субтитры: русские, *.srt
Режиссер: Кирк де Микко / Kirk De Micco, Крис Сандерс / Chris Sanders
Персонажи: Николас Кейдж, Эмма Стоун, Райан Рейнольдс, Кэтрин Кинер, Клорис Личмен, Кларк Дьюк, Крис Сандерс...
Описание: Землетрясение уничтожило дом доисторической семьи, и теперь Крудсам придётся искать другое пристанище. А вокруг новый и опасный мир! Им на помощь приходит молодой кочевник Малой, передовые взгляды которого наталкиваются на консервативность главы семьи Груза. Но только вместе они смогут выжить и достичь своей цели...

Источник/Качество: BDRip-AVC
Контейнер: MKV
Видео кодек: MPEG-4 AVC / x.264
Видео: 1120x476 / 2473 kbps / 23,976 fps / 2,35:1 / High Profile 4.1
Аудио #1: 48 kHz, AC3 Dolby Digital, 3/2 (L,C,R,l,r) + LFE ch, ~448 kbps avg - Володарский
Аудио #2: 48 kHz, AC3 Dolby Digital, 3/2 (L,C,R,l,r) + LFE ch, ~448 kbps avg - Сербин
Аудио #3: 48 kHz, AC3 Dolby Digital, 3/2 (L,C,R,l,r) + LFE ch, ~448 kbps avg - Карповский
- Перевод Юрия Сербина осуществлен в октябре 2013 г. силами форумов E180 и WIDESCREEN "Кино в Авторском переводе" по заказу: phaeton77, Nick, Multmir, denis_mgn_1987, furria62, foxlight, xerman13, ultrajeka, Кирыч, пуля, tide, safreks, Guyver, dark1982, maximus10-99, pestel, Nadoelo, markinscor, DFCbit, ilbilb, Slimka, Ramis, oleg-k, dr_akula, Savely, xfiles, luka69, DB73, Bilko, olegsoleg, lankano, ANISKIN50, carnivale, dir, 2vova2.
- Перевод Леонида Володарского осуществлен в октябре 2013 г. силами форумов E180 и WIDESCREEN "Кино в Авторском переводе" по заказу: bla_, Multmir, xerman13, ultrajeka, Nick, denis_mgn_1987, foxlight, phaeton77, Кирыч, furria62, пуля, Алекс, Guyver, Диммон, maximus10-99, Dr. Destructo, pestel, Nadoelo, Daniel Rock, DFCbit, Slimka, Lee Ray, Savely, dimavirovec, xfiles, luka69, olegsoleg, dir, фёдор александрович.
- Перевод Антона Карповского осуществлен в декабре 2013 г. силами форума Е180; Guyver, Wolf_Larsen, Jiraya87, v1111o, Slimka, denis_mgn_1987, zeleniy, luka69, ultrajeka, SavineX78, Daniel Rock
Формат : Matroska
Версия формата : Version 4
Размер файла : 2,63 Гбайт
Продолжительность : 1 ч. 38 м.
Общий поток : 3820 Кбит/сек
Название фильма : The Croods.2013.BDRip-AVC.3xAVO.Subs -=anton966=-
Дата кодирования : UTC 2018-10-30 01:18:22
Программа кодирования : mkvmerge v8.3.0 ('Over the Horizon') 64bit
Библиотека кодирования : libebml v1.3.1 + libmatroska v1.4.2
Видео
Идентификатор : 1
Формат : AVC
Формат/Информация : Advanced Video Codec
Профиль формата : [email protected]
Настройки формата : CABAC / 11 Ref Frames
Параметр CABAC формата : Да
Параметр RefFrames формата : 11 кадров
Идентификатор кодека : V_MPEG4/ISO/AVC
Продолжительность : 1 ч. 38 м.
Битрейт : 2473 Кбит/сек
Ширина : 1120 пикселей
Высота : 476 пикселей
Соотношение сторон : 2,35:1
Режим частоты кадров : Постоянный
Частота кадров : 23,976 (24000/1001) кадра/сек
Цветовое пространство : YUV
Субдискретизация насыщенности : 4:2:0
Битовая глубина : 8 бит
Тип развёртки : Прогрессивная
Бит/(Пиксели*Кадры) : 0.193
Размер потока : 1,70 Гбайт (65%)
Заголовок : The Croods.2013.BDRip-AVC
Библиотека кодирования : x264 core 152 r2851kMod ba24899
Настройки программы : cabac=1 / ref=11 / deblock=1:-3:-3 / analyse=0x3:0x113 / me=umh / subme=10 / psy=1 / fade_compensate=0.00 / psy_rd=1.05:0.15 / mixed_ref=1 / me_range=32 / chroma_me=1 / trellis=2 / 8x8dct=1 / cqm=0 / deadzone=21,11 / fast_pskip=0 / chroma_qp_offset=-3 / threads=6 / lookahead_threads=1 / sliced_threads=0 / nr=0 / decimate=1 / interlaced=0 / bluray_compat=0 / constrained_intra=0 / bframes=3 / b_pyramid=2 / b_adapt=2 / b_bias=0 / direct=1 / weightb=1 / open_gop=0 / weightp=2 / keyint=250 / keyint_min=23 / scenecut=40 / intra_refresh=0 / rc_lookahead=40 / rc=crf / mbtree=0 / crf=19.3000 / qcomp=0.60 / qpmin=0 / qpmax=69 / qpstep=4 / vbv_maxrate=40000 / vbv_bufsize=62500 / crf_max=0.0 / nal_hrd=none / filler=0 / ip_ratio=1.40 / pb_ratio=1.23 / aq=3:0.80
Язык : English
Default : Да
Forced : Нет
Цветовой диапазон : Limited
Основные цвета : BT.709
Характеристики трансфера : BT.709
Коэффициенты матрицы : BT.709
Аудио #1
Идентификатор : 2
Формат : AC-3
Формат/Информация : Audio Coding 3
Коммерческое название : Dolby Digital
Идентификатор кодека : A_AC3
Продолжительность : 1 ч. 38 м.
Вид битрейта : Постоянный
Битрейт : 448 Кбит/сек
Каналы : 6 каналов
Channel layout : L R C LFE Ls Rs
Частота : 48,0 КГц
Частота кадров : 31,250 кадров/сек (1536 SPF)
Битовая глубина : 16 бит
Метод сжатия : С потерями
Размер потока : 316 Мбайт (12%)
Заголовок : Volodarskiy
Язык : Russian
ServiceKind/String : Complete Main
Default : Да
Forced : Нет
Аудио #2
Идентификатор : 3
Формат : AC-3
Формат/Информация : Audio Coding 3
Коммерческое название : Dolby Digital
Идентификатор кодека : A_AC3
Продолжительность : 1 ч. 38 м.
Вид битрейта : Постоянный
Битрейт : 448 Кбит/сек
Каналы : 6 каналов
Channel layout : L R C LFE Ls Rs
Частота : 48,0 КГц
Частота кадров : 31,250 кадров/сек (1536 SPF)
Битовая глубина : 16 бит
Метод сжатия : С потерями
Размер потока : 316 Мбайт (12%)
Заголовок : Serbin
Язык : Russian
ServiceKind/String : Complete Main
Default : Нет
Forced : Нет
Аудио #3
Идентификатор : 4
Формат : AC-3
Формат/Информация : Audio Coding 3
Коммерческое название : Dolby Digital
Идентификатор кодека : A_AC3
Продолжительность : 1 ч. 38 м.
Вид битрейта : Постоянный
Битрейт : 448 Кбит/сек
Каналы : 6 каналов
Channel layout : L R C LFE Ls Rs
Частота : 48,0 КГц
Частота кадров : 31,250 кадров/сек (1536 SPF)
Битовая глубина : 16 бит
Метод сжатия : С потерями
Размер потока : 316 Мбайт (12%)
Заголовок : Karpovskiy
Язык : Russian
ServiceKind/String : Complete Main
Default : Нет
Forced : Нет
Текст
Идентификатор : 5
Формат : UTF-8
Идентификатор кодека : S_TEXT/UTF8
Идентификатор кодека/Информация : UTF-8 Plain Text
Продолжительность : 1 ч. 29 м.
Битрейт : 65 бит/сек
ElementCount : 791
Размер потока : 42,9 Кбайт (0%)
Язык : Russian
Default : Нет
Forced : Нет
Меню
00:00:00.000 : en:Chapter 01
00:02:34.986 : en:Chapter 02
00:04:51.749 : en:Chapter 03
00:09:01.249 : en:Chapter 04
00:12:21.115 : en:Chapter 05
00:14:04.801 : en:Chapter 06
00:18:33.028 : en:Chapter 07
00:21:56.981 : en:Chapter 08
00:23:24.736 : en:Chapter 09
00:26:49.773 : en:Chapter 10
00:28:37.132 : en:Chapter 11
00:30:25.656 : en:Chapter 12
00:32:48.633 : en:Chapter 13
00:36:03.369 : en:Chapter 14
00:38:33.561 : en:Chapter 15
00:41:34.532 : en:Chapter 16
00:44:38.842 : en:Chapter 17
00:48:02.628 : en:Chapter 18
00:52:10.960 : en:Chapter 19
00:55:17.480 : en:Chapter 20
01:00:14.777 : en:Chapter 21
01:03:58.083 : en:Chapter 22
01:05:48.735 : en:Chapter 23
01:08:44.036 : en:Chapter 24
01:10:47.283 : en:Chapter 25
01:12:37.144 : en:Chapter 26
01:14:01.645 : en:Chapter 27
01:19:48.573 : en:Chapter 28
01:23:09.859 : en:Chapter 29
01:25:16.735 : en:Chapter 30
01:28:04.319 : en:Chapter 31
01:30:02.229 : en:Chapter 32
avs [info]: 1120x476p 1:1 @ 24000/1001 fps (cfr)
x264 [info]: using SAR=1/1
x264 [info]: using cpu capabilities: MMX2 SSE2Fast SSSE3 SSE4.2 AVX XOP FMA3 BMI1
x264 [info]: profile High, level 4.1
x264 [info]: cabac=1 ref=11 deblock=1:-3:-3 analyse=0x3:0x113 me=umh subme=10 psy=1 fade_compensate=0.00 psy_rd=1.05:0.15 mixed_ref=1 me_range=32 chroma_me=1 trellis=2 8x8dct=1 cqm=0 deadzone=21,11 fast_pskip=0 chroma_qp_offset=-3 threads=6 lookahead_threads=1 sliced_threads=0 nr=0 decimate=1 interlaced=0 bluray_compat=0 constrained_intra=0 bframes=3 b_pyramid=2 b_adapt=2 b_bias=0 direct=1 weightb=1 open_gop=0 weightp=2 keyint=250 keyint_min=23 scenecut=40 intra_refresh=0 rc_lookahead=40 rc=crf mbtree=0 crf=19.3000 qcomp=0.60 qpmin=0 qpmax=69 qpstep=4 vbv_maxrate=40000 vbv_bufsize=62500 crf_max=0.0 nal_hrd=none filler=0 ip_ratio=1.40 pb_ratio=1.23 aq=3:0.80
x264 [info]: frame I:1295 Avg QP:16.83 size: 77569
x264 [info]: frame P:43513 Avg QP:18.76 size: 22067
x264 [info]: frame B:97055 Avg QP:21.43 size: 7919
x264 [info]: consecutive B-frames: 4.0% 5.3% 26.7% 63.9%
x264 [info]: mb I I16..4: 7.7% 73.6% 18.8%
x264 [info]: mb P I16..4: 2.2% 14.9% 2.0% P16..4: 37.6% 20.7% 13.5% 0.0% 0.0% skip: 9.1%
x264 [info]: mb B I16..4: 0.2% 2.0% 0.3% B16..8: 38.4% 10.0% 3.0% direct: 5.4% skip:40.7% L0:42.0% L1:41.1% BI:16.8%
x264 [info]: 8x8 transform intra:77.5% inter:61.4%
x264 [info]: coded y,uvDC,uvAC intra: 81.7% 80.4% 55.6% inter: 20.4% 17.4% 5.1%
x264 [info]: i16 v,h,dc,p: 39% 12% 6% 42%
x264 [info]: i8 v,h,dc,ddl,ddr,vr,hd,vl,hu: 9% 13% 7% 8% 12% 11% 14% 11% 15%
x264 [info]: i4 v,h,dc,ddl,ddr,vr,hd,vl,hu: 8% 8% 4% 9% 17% 14% 16% 10% 14%
x264 [info]: i8c dc,h,v,p: 37% 28% 15% 20%
x264 [info]: Weighted P-Frames: Y:8.6% UV:6.3%
x264 [info]: ref P L0: 51.4% 11.8% 13.7% 5.9% 4.7% 3.8% 2.8% 1.7% 1.4% 1.4% 1.3% 0.2% 0.0%
x264 [info]: ref B L0: 75.9% 9.0% 6.7% 2.2% 2.0% 1.5% 1.1% 0.7% 0.5% 0.3%
x264 [info]: ref B L1: 95.6% 4.4%
x264 [info]: kb/s:2473.23
Download / Скачать

Хотите скачать бесплатно? Зарегистрируйтесь на сайте (ссылка на регистрацию). Pirat.ca - самый быстрый торрент трекер в рунете!

Как скачивать  ·   Что такое торрент  ·   Рейтинг и ограничения

usya5

Корсар

Пост 30-Окт-2018 22:00 (спустя 16 часов)

[Q] 

Спасибо, посмотрим Лови бочку
[Профиль]  [ЛС] 
Показать сообщения:    
Ответить на тему

Текущее время: Сегодня 22:03

Часовой пояс: GMT + 4



Вы не можете начинать темы
Вы не можете отвечать на сообщения
Вы не можете редактировать свои сообщения
Вы не можете удалять свои сообщения
Вы не можете голосовать в опросах
Вы не можете прикреплять файлы к сообщениям
Вы не можете скачивать файлы

Майнать ▼