Сказочный патруль / Fantasy Patrol / Сезон: 1 / Серии: 1-26 из 26 (Наиль Мубинов) [2016 г., мультфильм, детский, WEB-DLRip, 1080p]

Ответить на тему
 
Автор
Сообщение

Пост 20-Янв-2018 13:02

[Q] 

AlexDjas

--Сказочный патруль / Fantasy Patrol-- Производство:Россия (Анимационная Студия "Паровоз")
Режиссёр: Наиль Мубинов
Жанр: мультфильм, детский
Год выпуска: 2016 г.
Продолжительность: 00:11:00 1 серия
Перевод: Не требуется
Роли озвучивали: Мирослава Карпович,Полина Кутепова,Ольга Кузьмина,Юлия Александрова,Иван Жвакин,Ёла Санько,Диомид Виноградов,Даниил Эльдаров--Описание: Сериал расскажет о невероятных, захватывающих приключениях четырех юных волшебниц: Аленки, Вари, Маши и Снежки. В первой серии «Знакомство» три подруги приезжают в заповедник сказок — город Мышкин, и знакомятся с местной девочкой Аленкой. Они подбирают на улице необычную, милую зверушку — Печальку, которая превращается в монстра — Тоску, грозящую принести большие неприятности. Вместе девочки одолевают Тоску и спасают город. Пройдя ряд испытаний и преодолев разногласия, девочки становятся настоящими подругами. Вместе они создают команду для контроля за сказочными силами, тем самым сохраняя спокойствие в мире людей.--Качество видео: WEB-DLRip
Контейнер: MKV
Стандарт разрешения: 1080p
Видео кодек: MPEG4 AVC
Аудио кодек: AC3
Видео: 1920x1080, 5000 kbps, 25 fps
Аудио: AС3, 48kHz, 2 ch, 256 kbps
Cубтитры: отсутствуют
Общее
Уникальный идентификатор : 54243542660643148414016531000266084275 (0x28CEED22A695168D453EAB7BD9DC4FB3)
Полное имя : D:\Торрент\Fantasy Patrol_S01[pirat.ca]\02_Кошки-Мышки.mkv
Формат : Matroska
Версия формата : Version 4
Размер файла : 404 Мбайт
Продолжительность : 11 м. 0 с.
Общий поток : 5132 Кбит/сек
Название фильма : Fantasy Patrol
Дата кодирования : UTC 2019-05-21 06:43:53
Программа кодирования : mkvmerge v34.0.0 ('Sight and Seen') 64-bit
Библиотека кодирования : libebml v1.3.7 + libmatroska v1.5.0
Видео
Идентификатор : 1
Формат : AVC
Формат/Информация : Advanced Video Codec
Профиль формата : [email protected]
Настройки формата : CABAC / 4 Ref Frames
Параметр CABAC формата : Да
Параметр RefFrames формата : 4 кадра
Идентификатор кодека : V_MPEG4/ISO/AVC
Продолжительность : 11 м. 0 с.
Битрейт : 5000 Кбит/сек
Ширина : 1920 пикселей
Высота : 1080 пикселей
Соотношение сторон : 16:9
Режим частоты кадров : Постоянный
Частота кадров : 25,000 кадров/сек
Цветовое пространство : YUV
Субдискретизация насыщенности : 4:2:0
Битовая глубина : 8 бит
Тип развёртки : Прогрессивная
Бит/(Пиксели*Кадры) : 0.096
Размер потока : 383 Мбайт (95%)
Библиотека кодирования : x264 core 148 r2643 5c65704
Настройки программы : cabac=1 / ref=4 / deblock=1:0:0 / analyse=0x3:0x113 / me=umh / subme=8 / psy=1 / psy_rd=1.00:0.00 / mixed_ref=1 / me_range=24 / chroma_me=1 / trellis=1 / 8x8dct=1 / cqm=0 / deadzone=21,11 / fast_pskip=1 / chroma_qp_offset=-2 / threads=9 / lookahead_threads=1 / sliced_threads=0 / nr=0 / decimate=1 / interlaced=0 / bluray_compat=0 / constrained_intra=0 / bframes=3 / b_pyramid=0 / b_adapt=2 / b_bias=0 / direct=3 / weightb=1 / open_gop=0 / weightp=2 / keyint=250 / keyint_min=25 / scenecut=40 / intra_refresh=0 / rc_lookahead=40 / rc=abr / mbtree=1 / bitrate=5000 / ratetol=1.0 / qcomp=0.60 / qpmin=10 / qpmax=51 / qpstep=4 / ip_ratio=1.41 / aq=1:1.00
Язык : Russian
Default : Да
Forced : Нет
Аудио
Идентификатор : 2
Формат : AC-3
Формат/Информация : Audio Coding 3
Коммерческое название : Dolby Digital
Идентификатор кодека : A_AC3
Продолжительность : 11 м. 0 с.
Вид битрейта : Постоянный
Битрейт : 256 Кбит/сек
Каналы : 2 канала
ChannelLayout : L R
Частота : 48,0 КГц
Частота кадров : 31,250 кадров/сек (1536 SPF)
Битовая глубина : 16 бит
Метод сжатия : С потерями
Размер потока : 20,1 Мбайт (5%)
Язык : Russian
ServiceKind/String : Complete Main
Default : Да
Forced : Нет
01. Знакомство
02. Кошки - мышки
03. Танцуют все!
04. Как стать звездой
05. Загадай желание!
06. Всё под контролем!
07. Кто в теремочке живёт?
08. Гори-гори ясно!
09. Всё кувырком
10. Большой день
11. У четырёх нянек
12. Зазеркалье
13. Пророчество
14. Подарок подземелья
15. Королева бала
16. Под водой
17. Возвращение зайки
18. Волшебный лес
19. Бело-Снежка
20. Маскарад
21. Огненный гость
22. Снежная королева
23. Ди-джей
24. Лучшие друзья
25. Долгие сборы
26. Тайна Лукоморья
Download / Скачать

Хотите скачать бесплатно? Зарегистрируйтесь на сайте (ссылка на регистрацию). Pirat.ca - самый быстрый торрент трекер в рунете!

Как скачивать  ·   Что такое торрент  ·   Рейтинг и ограничения



Последний раз редактировалось: AlexDjas (Вчера 11:50), всего редактировалось 17 раз(а)

AlexDjas ®

9220

Пост 13-Фев-2018 17:20 (спустя 24 дня)

[Q] 

Добавлена 15 серия - Королева бала.

_________________
- Один терапевт - это 1024 гигапевта, или 1048576 мегапевтов!
[Профиль]  [ЛС] 

AlexDjas ®

9220

Пост 24-Мар-2018 12:40 (спустя 1 месяц 10 дней)

[Q] 

Добавлена 16 серия - Под водой.

_________________
- Один терапевт - это 1024 гигапевта, или 1048576 мегапевтов!
[Профиль]  [ЛС] 

the_lame

Флибустьер

Пост 05-Апр-2018 11:28 (спустя 11 дней)

[Q] 

Спасибо! Дочка очень любит этот мультик.
[Профиль]  [ЛС] 

AlexDjas ®

9220

Пост 13-Апр-2018 18:50 (спустя 8 дней)

[Q] 

Добавлена 17 серия

_________________
- Один терапевт - это 1024 гигапевта, или 1048576 мегапевтов!
[Профиль]  [ЛС] 

AlexDjas ®

9220

Пост 14-Апр-2018 09:55 (спустя 15 часов)

[Q] 

17 серия заменена на безрекламную )))) (звиняйте, поторопился)

_________________
- Один терапевт - это 1024 гигапевта, или 1048576 мегапевтов!
[Профиль]  [ЛС] 

AlexDjas ®

9220

Пост 03-Май-2018 12:59 (спустя 19 дней)

[Q] 

Добавлена 18 серия - Волшебный лес.

_________________
- Один терапевт - это 1024 гигапевта, или 1048576 мегапевтов!
[Профиль]  [ЛС] 

AlexDjas ®

9220

Пост 07-Июл-2018 11:36 (спустя 2 месяца 3 дня)

[Q] 

Добавлена 19 и 20 серии

_________________
- Один терапевт - это 1024 гигапевта, или 1048576 мегапевтов!
[Профиль]  [ЛС] 

Victorsalata

Флибустьер

Пост 22-Авг-2018 16:13 (спустя 1 месяц 15 дней)

[Q] 

Спасибо. Внуки с удовольствием посмотрели.
[Профиль]  [ЛС] 

AlexDjas ®

9220

Пост 07-Окт-2018 09:09 (спустя 1 месяц 15 дней)

[Q] 

Добавлены 21,22,23 серии.

_________________
- Один терапевт - это 1024 гигапевта, или 1048576 мегапевтов!
[Профиль]  [ЛС] 

AlexDjas ®

9220

Пост 03-Ноя-2018 14:42 (спустя 27 дней)

[Q] 

Добавлена 24 серия

_________________
- Один терапевт - это 1024 гигапевта, или 1048576 мегапевтов!
[Профиль]  [ЛС] 

AlexDjas ®

9220

Пост Вчера 11:51 (спустя 6 месяцев 17 дней)

[Q] 

Внимание! Раздача заменена на более качественную 1080р! Добвлены последние серии сезона.

_________________
- Один терапевт - это 1024 гигапевта, или 1048576 мегапевтов!
[Профиль]  [ЛС] 
Показать сообщения:    
Ответить на тему

Текущее время: Сегодня 02:37

Часовой пояс: GMT + 4



Вы не можете начинать темы
Вы не можете отвечать на сообщения
Вы не можете редактировать свои сообщения
Вы не можете удалять свои сообщения
Вы не можете голосовать в опросах
Вы не можете прикреплять файлы к сообщениям
Вы не можете скачивать файлы

Майнать ▼