Лунтик. Все серии / Сезон: 1-5 / Серии: 1-380 (Дарина Шмидт) [2006 г., Детский, Приключения, Комедия, DVDRip]

Ответить на тему
 
Автор
Сообщение

Пост 14-Сен-2013 16:47

[Q] 

strech72

Лоцман

-Лунтик. Все сезоны-- Производство: Россия
Режиссер: Дарина Шмидт
Жанр: Детский, Приключения, Комедия
Год выпуска: 2006 г.
Продолжительность: 380 х 00:04:00
Перевод: Не требуется
Описание: «Приключения Лунтика» — российский обучающий анимационный сериал для детей дошкольного возраста. Это история маленького пушистого существа, Лунтика, родившегося на Луне и упавшего с нее на Землю. Действие происходит в лесу около пруда. Большинство персонажей — это мелкие животные: насекомые, рыбы, лягушки и т. д. Они представляют собой взрослых и детей. Главные персонажи — это дети, прежде всего сам Лунтик, которые познают мир, учатся взаимоотношениям в обществе. Сериал очень добрый, в нём показан детский взгляд на мир. По сути, здесь нет целиком и полностью отрицательных персонажей, даже хулиганы — гусеницы показаны зачастую с разных сторон, многогранными характерами, в которых есть и положительные черты. Сериал представляет собой набор коротких 6-минутных серий, в каждой серии разворачивается отдельная законченная история.-Качество видео: DVDRip
Контейнер: AVI
Видео кодек: XviD
Аудио кодек: MP3
Видео: XviD (Mpg4) 704*544 25,000 кадр/сек 1000 Кбит/сек
Аудио: MPEG Audio at 128 Кбит/сек/2 канала(ов), 48,0 КГц
Cубтитры: отсутствуют
Общее
Полное имя : Z:\torrent\Лунтик без титров\1101.Лунный гость.avi
Формат : AVI
Формат/Информация : Audio Video Interleave
Размер файла : 37,2 Мбайт
Продолжительность : 4 м. 34 с.
Общий поток : 1135 Кбит/сек
Программа кодирования : MEncoder SVN-r1.0~rc3+svn20090426-4.4.3
Библиотека кодирования : MPlayer
Видео
Идентификатор : 0
Формат : MPEG-4 Visual
Профиль формата : Advanced [email protected]
Параметр BVOP формата : 2
Параметр QPel формата : Нет
Параметр GMC формата : Без точки перехода
Параметр матрицы формата : Default (H.263)
Идентификатор кодека : XVID
Идентификатор кодека/Подсказка : XviD
Продолжительность : 4 м. 34 с.
Битрейт : 994 Кбит/сек
Ширина : 704 пикселя
Высота : 544 пикселя
Соотношение сторон : 4:3
Соотношение сторон в оригинале : 1,294
Частота кадров : 25,000 кадров/сек
Цветовое пространство : YUV
Субдискретизация насыщенности : 4:2:0
Битовая глубина : 8 бит
Тип развёртки : Прогрессивная
Метод сжатия : С потерями
Бит/(Пиксели*Кадры) : 0.104
Размер потока : 32,6 Мбайт (88%)
Библиотека кодирования : XviD 1.2.1 (UTC 2008-12-04)
Аудио
Идентификатор : 1
Формат : MPEG Audio
Версия формата : Version 1
Профиль формата : Layer 3
Режим : Joint stereo
Расширение режима : MS Stereo
Идентификатор кодека : 55
Идентификатор кодека/Подсказка : MP3
Продолжительность : 4 м. 34 с.
Вид битрейта : Постоянный
Битрейт : 128 Кбит/сек
Каналы : 2 канала
Частота : 48,0 КГц
Метод сжатия : С потерями
Задержка видео : 80 мс.
Размер потока : 4,19 Мбайт (11%)
Выравнивание : Соединение по промежуткам
Продолжительность промежутка : 24 мс. (0,60 видеокадр)
Время предзагрузки промежутка : 504 мс.
Библиотека кодирования : LAME3.98.2
Download / Скачать

Хотите скачать бесплатно? Зарегистрируйтесь на сайте (ссылка на регистрацию). Pirat.ca - самый быстрый торрент трекер в рунете!

Как скачивать  ·   Что такое торрент  ·   Рейтинг и ограничения



Последний раз редактировалось: strech72 (2013-09-19 19:35), всего редактировалось 1 раз

$amanta

Морской Волк

Пост 20-Фев-2014 20:32 (спустя 5 месяцев 6 дней)

[Q] 

Спасибо, дети оценят!!!!!! Автору респект!!! Супер!
[Профиль]  [ЛС] 

zoojk

Корсар

Пост 11-Май-2014 18:47 (спустя 2 месяца 18 дней)

[Q] 

деткам на радость
Я лично это чудище слегка побаиваюсь :) Спасибо!!!
[Профиль]  [ЛС] 

дмитрий[email protected]mail.ru

Корсар

Пост 20-Июн-2014 14:57 (спустя 1 месяц 8 дней)

[Q] 

Спасибо!!! Раздающему респект! сын будет рад!
[Профиль]  [ЛС] 

dimannds

Морской Волк

73

Пост 25-Июн-2014 00:21 (спустя 4 дня)

[Q] 

Автору респект!!! Лови бочку
Сын будет доволен
[Профиль]  [ЛС] 

Saturn

Корсар

453

Пост 13-Окт-2014 23:04 (спустя 3 месяца 18 дней)

[Q] 

Отлично! Спасибо, а то уже и в онлайн рекламы понапихали... Автору респект!!! Пиратка рулит!
[Профиль]  [ЛС] 

ShamanIEA

Морской Волк

Пост 19-Фев-2015 22:42 (спустя 4 месяца 5 дней)

[Q] 

чспасибол
Лови бочку
[Профиль]  [ЛС] 

qqq25691

Шкипер

Пост 20-Фев-2015 20:58 (спустя 22 часа)

[Q] 

Любимый мультик Одобрямс!
[Профиль]  [ЛС] 

xzxscorpxzx

Легенда

Пост 26-Ноя-2015 20:15 (спустя 9 месяцев 5 дней)

[Q] 

огромное спасибо от дочки)
[Профиль]  [ЛС] 

BookkeeperWolf

Гроза морей

Пост 17-Фев-2016 12:55 (спустя 2 месяца 20 дней)

[Q] 

Внучек доволен! Спасибо!!! Супер!
[Профиль]  [ЛС] 

alexeycat2008

Лоцман

Пост 04-Ноя-2018 19:46 (спустя 2 года 8 месяцев)

[Q] 

встанте на раздачу пожалуйста
[Профиль]  [ЛС] 
Показать сообщения:    
Ответить на тему

Текущее время: Сегодня 04:00

Часовой пояс: GMT + 4



Вы не можете начинать темы
Вы не можете отвечать на сообщения
Вы не можете редактировать свои сообщения
Вы не можете удалять свои сообщения
Вы не можете голосовать в опросах
Вы не можете прикреплять файлы к сообщениям
Вы не можете скачивать файлы

Майнать ▼