Маша и Медведь: Звезда с неба / Серия № 70 (Олег Кузовков, Олег Ужинов, Денис Червяцов) [2018 г., мультфильм, короткометражка, комедия, семейный, WEB-DL 1080p, WEB-DL 720p, WEB-DLRip]

Ответить на тему
 
Автор
Сообщение

Пост 12-Апр-2018 19:23

[Q] 

kugesan

Маша и Медведь: Звезда с неба
Серия № 70
-- Производство: Россия
Жанр: мультфильм, короткометражка, комедия, семейный
Год выпуска: 2018 г.
Продолжительность: 00:08:00
Режиссер: Олег Кузовков, Олег Ужинов, Денис Червяцов, ...
Персонажи: Алина Кукушкина, Эдуард Назаров, Борис Кутневич
Перевод: Не требуется
Описание:
Мультсериал про девочку Машу, которая никому не дает покоя, и в первую очередь - своему другу Медведю.
Мультик добрый, веселый, а по качеству намного опережает многие отечественные 3D-мультфильмы, да и некоторые западные 3D мультсериалы.
Сериал показывается в "Спокойной ночи, малыши".
Цель сериала «Маша и Медведь» проста и вместе с тем актуальна - попытаться донести до ребенка вечные истины в понятной и занятной форме,
представить мир в его многообразии, выявить позитивные стороны в любой ситуации. Тактично объяснить логику действий в различных проблемных ситуациях.
В ненавязчивой форме помочь в борьбе с собственными слабостями. Показать человеческие недостатки и высмеять их, не оскорбляя ничьего достоинства.
Формат - комедийный детский сериал.
Сериал рассчитан в первую очередь на детскую аудиторию (от 3 до 9 лет) и поэтому форма изложения материала будет адаптирована для детского восприятия,
но не будет чрезмерно упрощенной. Сериал планируется действительно семейным, интересным для всех возрастов, чтобы взрослые могли посмеяться
над приключениями Маши и Медведя, вспомнив собственное детство.
Благодаря тому, что каждая серия является законченной историей с достоверным видеорядом, у зрителей возникает ощущение, что персонажи и их мир
действительно существует параллельно с нашим (при этом принцип завершенности каждой серии позволяет комбинировать их в любой последовательности,
так чтобы зритель мог понимать и воспринимать сериал, даже пропустив его первые эпизоды).
Сериал "Маша и Медведь" на треке Pirat.ca
- -
Качество видео: WEB-DLRip
Контейнер: AVI
Видео кодек: XviD
Аудио кодек: AC-3
Видео: MPEG-4 Visual at ~ 1500 Кбит/сек: 720 x 400 (1.800) at 25.000 fps, 0.21 Бит/Пиксели
Аудио Rus: AC-3 at 192 Кбит/сек: 2 канала, 48,0 КГц
Cубтитры: отсутствуют
Общее
Полное имя : E:\_Сериалы\_Сериалы\Маша и Медведь\Звезда с неба\Маша и Медведь.Звезда с неба (s70).avi
Формат : AVI
Формат/Информация : Audio Video Interleave
Размер файла : 99,9 Мбайт
Продолжительность : 8 м. 11 с.
Общий поток : 1705 Кбит/сек
Программа кодирования : VirtualDubMod 1.5.10.3 | www.virtualdub-fr.org || (build 2550/release)
Библиотека кодирования : VirtualDubMod build 2550/release
Видео
Идентификатор : 0
Формат : MPEG-4 Visual
Профиль формата : Advanced [email protected]
Настройки формата : BVOP1
Параметр BVOP формата : 1
Параметр QPel формата : Нет
Параметр GMC формата : Без точки перехода
Параметр матрицы формата : Default (MPEG)
Идентификатор кодека : XVID
Идентификатор кодека/Подсказка : XviD
Продолжительность : 8 м. 11 с.
Битрейт : 1503 Кбит/сек
Ширина : 720 пикселей
Высота : 400 пикселей
Соотношение сторон : 16:9
Частота кадров : 25,000 кадров/сек
Цветовое пространство : YUV
Субдискретизация насыщенности : 4:2:0
Битовая глубина : 8 бит
Тип развёртки : Прогрессивная
Метод сжатия : С потерями
Бит/(Пиксели*Кадры) : 0.209
Размер потока : 88,1 Мбайт (88%)
Библиотека кодирования : XviD 1.2.1 (UTC 2008-12-04)
Аудио
Идентификатор : 1
Формат : AC-3
Формат/Информация : Audio Coding 3
Идентификатор кодека : 2000
Продолжительность : 8 м. 11 с.
Вид битрейта : Постоянный
Битрейт : 192 Кбит/сек
Каналы : 2 канала
Расположение каналов : Front: L R
Частота : 44,1 КГц
Частота кадров : 28,711 кадров/сек (1536 SPF)
Битовая глубина : 16 бит
Метод сжатия : С потерями
Размер потока : 11,3 Мбайт (11%)
Выравнивание : Разделение по промежуткам
Продолжительность промежутка : 40 мс. (1,00 видеокадр)
Время предзагрузки промежутка : 500 мс.
ServiceKind/String : Complete Main
-
Качество видео: WEB-DL 720p
Контейнер: MKV
Видео кодек: AVC ([email protected])
Аудио кодек: AC-3
Видео: AVC at ~ 1700 Кбит/сек: 1280 x 720 (1.778) at 25.000 fps
Аудио: AC-3 at 192 Кбит/сек: 2 канала, 44,1 КГц
Cубтитры: отсутствуют
Общее
Уникальный идентификатор : 169379104400495126464794197703692135105 (0x7F6D3A99F764C8BA28E94ACA51002AC1)
Полное имя : E:\_Сериалы\_Сериалы\Маша и Медведь\Звезда с неба\Маша и Медведь.Звезда с неба (s70).720p.mkv
Формат : Matroska
Версия формата : Version 4 / Version 2
Размер файла : 113 Мбайт
Продолжительность : 8 м. 11 с.
Общий поток : 1929 Кбит/сек
Программа кодирования : Lavf57.71.100
Библиотека кодирования : Lavf57.71.100
ErrorDetectionType : Per level 1
Видео
Идентификатор : 1
Формат : AVC
Формат/Информация : Advanced Video Codec
Профиль формата : [email protected]
Настройки формата : CABAC / 3 Ref Frames
Параметр CABAC формата : Да
Параметр RefFrames формата : 3 кадра
Идентификатор кодека : V_MPEG4/ISO/AVC
Продолжительность : 8 м. 11 с.
Битрейт : 1699 Кбит/сек
Ширина : 1280 пикселей
Высота : 720 пикселей
Соотношение сторон : 16:9
Режим частоты кадров : Постоянный
Частота кадров : 25,000 кадров/сек
Цветовое пространство : YUV
Субдискретизация насыщенности : 4:2:0
Битовая глубина : 8 бит
Тип развёртки : Прогрессивная
Бит/(Пиксели*Кадры) : 0.074
Размер потока : 99,5 Мбайт (88%)
Default : Да
Forced : Нет
Цветовой диапазон : Limited
Основные цвета : BT.709
Характеристики трансфера : BT.709
Коэффициенты матрицы : BT.709
Аудио
Идентификатор : 2
Формат : AC-3
Формат/Информация : Audio Coding 3
Идентификатор кодека : A_AC3
Продолжительность : 8 м. 11 с.
Вид битрейта : Постоянный
Битрейт : 192 Кбит/сек
Каналы : 2 канала
Расположение каналов : Front: L R
Частота : 44,1 КГц
Частота кадров : 28,711 кадров/сек (1536 SPF)
Битовая глубина : 16 бит
Метод сжатия : С потерями
Задержка видео : -40 мс.
Размер потока : 11,3 Мбайт (10%)
Язык : unknown
ServiceKind/String : Complete Main
Default : Да
Forced : Нет
-
Качество видео: WEB-DL 1080p
Контейнер: MKV
Видео кодек: AVC ([email protected])
Аудио кодек: AC-3
Видео: AVC at 3360 Кбит/сек: 1920 x 1080 (1.778) at 25.000 fps
Аудио: AC-3 at 192 Кбит/сек: 2 канала, 44,1 КГц
Cубтитры: отсутствуют
Общее
Уникальный идентификатор : 25217162928106880259017111218822506529 (0x12F8A61F97D8F33FFB93F3F3E1C2E821)
Полное имя : E:\_Сериалы\_Сериалы\Маша и Медведь\Звезда с неба\Маша и Медведь.Звезда с неба (s70).1080p.mkv
Формат : Matroska
Версия формата : Version 4 / Version 2
Размер файла : 213 Мбайт
Продолжительность : 8 м. 11 с.
Общий поток : 3631 Кбит/сек
Программа кодирования : Lavf57.71.100
Библиотека кодирования : Lavf57.71.100
ErrorDetectionType : Per level 1
Видео
Идентификатор : 1
Формат : AVC
Формат/Информация : Advanced Video Codec
Профиль формата : [email protected]
Настройки формата : CABAC / 2 Ref Frames
Параметр CABAC формата : Да
Параметр RefFrames формата : 2 кадра
Идентификатор кодека : V_MPEG4/ISO/AVC
Продолжительность : 8 м. 11 с.
Битрейт : 3367 Кбит/сек
Ширина : 1920 пикселей
Высота : 1080 пикселей
Соотношение сторон : 16:9
Режим частоты кадров : Постоянный
Частота кадров : 25,000 кадров/сек
Цветовое пространство : YUV
Субдискретизация насыщенности : 4:2:0
Битовая глубина : 8 бит
Тип развёртки : Прогрессивная
Бит/(Пиксели*Кадры) : 0.065
Размер потока : 197 Мбайт (93%)
Default : Да
Forced : Нет
Цветовой диапазон : Limited
Основные цвета : BT.709
Характеристики трансфера : BT.709
Коэффициенты матрицы : BT.709
Аудио
Идентификатор : 2
Формат : AC-3
Формат/Информация : Audio Coding 3
Идентификатор кодека : A_AC3
Продолжительность : 8 м. 11 с.
Вид битрейта : Постоянный
Битрейт : 192 Кбит/сек
Каналы : 2 канала
Расположение каналов : Front: L R
Частота : 44,1 КГц
Частота кадров : 28,711 кадров/сек (1536 SPF)
Битовая глубина : 16 бит
Метод сжатия : С потерями
Размер потока : 11,3 Мбайт (5%)
Язык : unknown
ServiceKind/String : Complete Main
Default : Да
Forced : Нет
-
1. Открыть торрент
2. Снять галки с тех файлов торрента, которые мы не хотим закачивать. Оставляем только на нужных нам файлах (файле).
3. Нажать О.К.
В клиенте utorrent
Инструкция
1) Открыть торрент

2) Снять галки с тех файлов торрента, которые мы не хотим закачивать:
* либо вручную, снимая с каждого файла галку( скрин №1)
* либо, нажав кнопку "Снять метки (Select None)", сняв сразу со всех файлов(скрин №2)
№1

№2

Оставляем только на нужных нам файлах (файле).

3)Нажать О.К
-Приятного просмотра!!!-
Download / Скачать

Хотите скачать бесплатно? Зарегистрируйтесь на сайте (ссылка на регистрацию). Pirat.ca - самый быстрый торрент трекер в рунете!

Как скачивать  ·   Что такое торрент  ·   Рейтинг и ограничения

Ambeg

Корсар

Пост 04-Ноя-2018 21:09 (спустя 6 месяцев 22 дня)

[Q] 

Спасибо!!! Эй, вернитесь на раздачу... как то выпал из жизни а тут уже столько серий вышло
[Профиль]  [ЛС] 
Показать сообщения:    
Ответить на тему

Текущее время: Сегодня 01:56

Часовой пояс: GMT + 4



Вы не можете начинать темы
Вы не можете отвечать на сообщения
Вы не можете редактировать свои сообщения
Вы не можете удалять свои сообщения
Вы не можете голосовать в опросах
Вы не можете прикреплять файлы к сообщениям
Вы не можете скачивать файлы

Майнать ▼