Духless 2 (Роман Прыгунов) [2015 г., драма, BDRip-AVC][Jolly Roger]

Ответить на тему
 
Автор
Сообщение

Пост 19-Апр-2015 07:20

[Q] 

aleksey99

--Духless 2-- Производство: Россия, Арт Пикчерс Студия, Кинослово
Режиссер: Роман Прыгунов
Жанр: драма
Год выпуска: 2015 г.
Продолжительность: 01:51:31--Мировая премьера: 5 марта 2015
Российская премьера: 5 марта 2015, «UPI»--В ролях: Данила Козловский, Мария Андреева, Милош Бикович, Павел Ворожцов, Сергей Бурунов, Владимир Симонов, Доминик Пинон, Александра Бортич, Яна Набокова, Анна Александрова, Лев Прыгунов--Описание: Он отказался от всего, что так когда-то ценил — светской жизни, успешной карьеры, роскошного пентхауса. Теперь его стихия — океан. Каждый день он рассекает на серфе теплые волны, омывающие остров Бали. Но невозможно забыть ритм большого города. Случайное знакомство возвращает его в самое сердце современной столицы — высокие технологии, сумасшедшие сделки, смертельный риск и прежняя любовь, которая больше не с ним.-- --Качество видео: BDRip-AVC
Контейнер: MKV
Видео кодек: H.264
Аудио кодек: AC3
Видео: AVC at 2350 Кбит/сек, 1040x432 at 24,000 fps
Аудио: 48 kHz, AC3 Dolby Digital, 3/2 (L,C,R,l,r) + LFE ch, ~448 kbps
Cубтитры: Отсутствуют
x264 [info]: using SAR=1/1
x264 [info]: using cpu capabilities: MMX2 SSE2Fast SSSE3 SSE4.2 AVX
x264 [info]: profile High, level 4.1
x264 [info]: frame I:1292 Avg QP:12.82 size: 76851
x264 [info]: frame P:42556 Avg QP:16.16 size: 25457
x264 [info]: frame B:116746 Avg QP:19.18 size: 6701
x264 [info]: consecutive B-frames: 4.7% 5.1% 12.7% 31.0% 16.1% 25.0% 2.9% 2.6%
x264 [info]: mb I I16..4: 17.0% 49.7% 33.3%
x264 [info]: mb P I16..4: 4.1% 14.7% 3.8% P16..4: 43.7% 11.8% 10.1% 1.6% 0.7% skip: 9.5%
x264 [info]: mb B I16..4: 0.5% 1.6% 0.5% B16..8: 35.4% 9.3% 2.7% direct: 5.6% skip:44.4% L0:40.0% L1:42.5% BI:17.5%
x264 [info]: 8x8 transform intra:62.8% inter:53.8%
x264 [info]: direct mvs spatial:95.7% temporal:4.3%
x264 [info]: coded y,uvDC,uvAC intra: 71.5% 79.2% 62.3% inter: 19.9% 20.5% 7.9%
x264 [info]: i16 v,h,dc,p: 52% 13% 8% 27%
x264 [info]: i8 v,h,dc,ddl,ddr,vr,hd,vl,hu: 15% 14% 14% 7% 9% 10% 11% 9% 12%
x264 [info]: i4 v,h,dc,ddl,ddr,vr,hd,vl,hu: 15% 14% 8% 7% 11% 11% 12% 9% 12%
x264 [info]: i8c dc,h,v,p: 45% 24% 19% 12%
x264 [info]: Weighted P-Frames: Y:3.1% UV:1.3%
x264 [info]: ref P L0: 52.9% 6.9% 17.0% 7.4% 6.0% 4.5% 4.6% 0.6% 0.0%
x264 [info]: ref B L0: 78.7% 11.0% 5.1% 2.9% 1.5% 0.8%
x264 [info]: ref B L1: 93.6% 6.4%
x264 [info]: kb/s:2349.24
x264 [total]: encoded 160594 frames, 7.80 fps, 2349.24 kb/s
Общее
Уникальный идентификатор : 204819548454203103652075086014360832443 (0x9A16CF66689E4182BB6736210DA3C9BB)
Полное имя : E:\p16\Духless_2_BDRip-AVC_2.18Gb_JRG.mkv
Формат : Matroska
Версия формата : Version 4 / Version 2
Размер файла : 2,18 Гбайт
Продолжительность : 1 ч. 51 м.
Общий поток : 2799 Кбит/сек
Название фильма : The Jolly Roger Release Group by http://pirat.ca
Дата кодирования : UTC 2015-04-19 03:03:22
Программа кодирования : mkvmerge v7.7.0 ('Six Voices') 64bit built on Feb 28 2015 23:39:33
Библиотека кодирования : libebml v1.3.1 + libmatroska v1.4.2
DURATION : 01:51:31.424000000
NUMBER_OF_FRAMES : 209107
NUMBER_OF_BYTES : 374719744
_STATISTICS_WRITING_APP : mkvmerge v7.7.0 ('Six Voices') 64bit built on Feb 28 2015 23:39:33
_STATISTICS_WRITING_DATE_UTC : 2015-04-19 03:03:22
_STATISTICS_TAGS : BPS DURATION NUMBER_OF_FRAMES NUMBER_OF_BYTES
Видео
Идентификатор : 1
Формат : AVC
Формат/Информация : Advanced Video Codec
Профиль формата : [email protected]
Параметр CABAC формата : Да
Параметр ReFrames формата : 7 кадров
Идентификатор кодека : V_MPEG4/ISO/AVC
Продолжительность : 1 ч. 51 м.
Битрейт : 2350 Кбит/сек
Ширина : 1040 пикселей
Высота : 432 пикселя
Соотношение сторон : 2,40:1
Режим частоты кадров : Постоянный
Частота кадров : 24,000 кадра/сек
Цветовое пространство : YUV
Субдискретизация насыщенности : 4:2:0
Битовая глубина : 8 бит
Тип развёртки : Прогрессивная
Бит/(Пиксели*Кадры) : 0.218
Размер потока : 1,79 Гбайт (82%)
Библиотека кодирования : x264 core 130 r2273 b3065e6
Настройки программы : cabac=1 / ref=7 / deblock=1:-1:-1 / analyse=0x3:0x133 / me=umh / subme=10 / psy=1 / psy_rd=1.00:0.15 / mixed_ref=0 / me_range=32 / chroma_me=1 / trellis=2 / 8x8dct=1 / cqm=0 / deadzone=21,11 / fast_pskip=0 / chroma_qp_offset=-3 / threads=6 / lookahead_threads=1 / sliced_threads=0 / nr=0 / decimate=1 / interlaced=0 / bluray_compat=0 / constrained_intra=0 / bframes=7 / b_pyramid=2 / b_adapt=2 / b_bias=0 / direct=3 / weightb=1 / open_gop=0 / weightp=2 / keyint=250 / keyint_min=23 / scenecut=40 / intra_refresh=0 / rc_lookahead=50 / rc=2pass / mbtree=1 / bitrate=2350 / ratetol=1.0 / qcomp=0.60 / qpmin=0 / qpmax=69 / qpstep=4 / cplxblur=20.0 / qblur=0.5 / ip_ratio=1.40 / aq=1:1.00
Default : Да
Forced : Нет
Аудио
Идентификатор : 2
Формат : AC-3
Формат/Информация : Audio Coding 3
Расширение режима : CM (complete main)
Параметр Endianness формата : Big
Идентификатор кодека : A_AC3
Продолжительность : 1 ч. 51 м.
Вид битрейта : Постоянный
Битрейт : 448 Кбит/сек
Каналы : 6 каналов
Расположение каналов : Front: L C R, Side: L R, LFE
Частота : 48,0 КГц
Битовая глубина : 16 бит
Метод сжатия : С потерями
Размер потока : 357 Мбайт (16%)
Default : Да
Forced : Нет
Download / Скачать

Хотите скачать бесплатно? Зарегистрируйтесь на сайте (ссылка на регистрацию). Pirat.ca - самый быстрый торрент трекер в рунете!

Как скачивать  ·   Что такое торрент  ·   Рейтинг и ограничения

ATHLON

Шкипер

16

Пост 19-Апр-2015 12:20 (спустя 5 часов)

[Q] 

2 часть, как вообще? лучше или хуже первой?
[Профиль]  [ЛС] 

youfate

Флибустьер

Пост 19-Апр-2015 16:26 (спустя 4 часа)

[Q] 

Поглядеть на раз точно хватит. Уже качаю... Автору респект!!!
[Профиль]  [ЛС] 

Almanaatan

Штурман

Пост 19-Апр-2015 23:13 (спустя 6 часов)

[Q] 

Мне понравилось, очень достойно! Раздающему респект!
[Профиль]  [ЛС] 

ALEHAN

Легенда

Пост 20-Апр-2015 22:52 (спустя 23 часа)

[Q] 

Излишний пафос - единственный недостаток фильма. Но на фоне общей депресивности, и этот недостаток можно простить. Посмотрел с огромным удовольствием.
[Профиль]  [ЛС] 

Мишки

Морской Волк

Пост 20-Апр-2015 22:55 (спустя 3 минуты)

[Q] 

Я наверное один такой, которому вторая часть понравилась больше первой. Правильный месседж в фильме, концовка порадовала, смешно и грустно.

_________________
Это всего лишь игра, настройся на волну позитива!:)
[Профиль]  [ЛС] 

Роман1412

Морской Волк

Пост 22-Апр-2015 00:16 (спустя 1 день 1 час)

[Q] 

а мнем наоборот, вторая не понравилась. Больше на сказку похожа.
[Профиль]  [ЛС] 

Dead Mazay

Флибустьер

Пост 26-Апр-2015 15:54 (спустя 4 дня)

[Q] 

rum
[Профиль]  [ЛС] 

Oleg2015

Лоцман

Пост 10-Май-2015 13:43 (спустя 13 дней)

[Q] 

Лови бочку понравилась
[Профиль]  [ЛС] 

ilya66613

Штурман

Пост 11-Май-2015 22:33 (спустя 1 день 8 часов)

[Q] 

Глянем че там
[Профиль]  [ЛС] 

Victorsalata

Флибустьер

Пост 12-Май-2015 11:56 (спустя 13 часов)

[Q] 

Фильм посмотрел, но как-то не очень по сравнению с первым фильмом.
[Профиль]  [ЛС] 

Korcha40

Морской Волк

Пост 12-Май-2015 15:25 (спустя 3 часа)

[Q] 

высокие технологии, сумасшедшие сделки, смертельный риск и прежняя любовь, вот всё это не про фильм !Он отказался от всего, что так когда-то ценил — светской жизни, успешной карьеры, роскошного пентхауса !!!--- всё для того что бы жить в собственном бунгало ! вот какое кино ! на трёшку не выше ! сказочка про чувака и ФСБ !сьёмки красивые ! Автору респект!!!
[Профиль]  [ЛС] 

Пост 19-Май-2015 08:28 (спустя 6 дней)

Топик был перенесен из форума Новинки (HD|DVD|BD| TV|SAT|PDTV| - Rips) в форум Наше кино
aleksey99
 

grosboy

Гроза морей

Пост 10-Окт-2017 11:24 (спустя 2 года 4 месяца)

[Q] 

Фильм понравился. Интересная поучительная история.

_________________
Щастье есть - его не может не быть...
[Профиль]  [ЛС] 

Су-34

Легенда

15827

Пост 11-Ноя-2018 22:21 (спустя 1 год 1 месяц)

[Q] 

Мутотааа!! Трафик потрачен зря!
[Профиль]  [ЛС] 
Показать сообщения:    
Ответить на тему

Текущее время: Сегодня 06:25

Часовой пояс: GMT + 4



Вы не можете начинать темы
Вы не можете отвечать на сообщения
Вы не можете редактировать свои сообщения
Вы не можете удалять свои сообщения
Вы не можете голосовать в опросах
Вы не можете прикреплять файлы к сообщениям
Вы не можете скачивать файлы

Майнать ▼