Стиляги (Валерий Тодоровский) [2008 г., мюзикл, драма, мелодрама, комедия, BDRip] [Jolly Roger]

Ответить на тему
 
Автор
Сообщение

Пост 16-Фев-2014 22:38

[Q] 

ara1205

-Стиляги-- Год выпуска: 2008 г.
Производство: Россия
Жанр: мюзикл, драма, мелодрама, комедия
Продолжительность: 02:16:24-Режиссер: Валерий Тодоровский-В ролях: Антон Шагин, Оксана Акиньшина, Евгения Брик, Максим Матвеев, Игорь Войнаровский, Екатерина Вилкова, Константин Балакирев, Александр Стефанцов, Георгий Сивохин, Ольга Смирнова-Описание: Это история Москвы начала пятидесятых, в которой компании молодых людей приходится бороться за право быть не такими как все, слушать другую музыку, по-другому одеваться и конечно же любить.-- --Качество видео: BDRip
Контейнер: AVI
Видео кодек: XviD
Аудио кодек: AC3
Видео: 720x304, 23.976 fps, 1329 kbps avg, 0.253 bit/pixel
Аудио: 48 kHz, AC3 Dolby Digital, 2 ch, 192 kbps-
Общее
Полное имя : C:\Users\Ромик\Documents\[R.G. Jolly Roger]\Стиляги\Stilyagi.2008.BDRip.JRG.avi
Формат : AVI
Формат/Информация : Audio Video Interleave
Размер файла : 1,46 Гбайт
Продолжительность : 2 ч. 16 м.
Общий поток : 1530 Кбит/сек
Название фильма : Stilyagi.2008.BDRip.JRG.[pirat.ca]
Программа кодирования : VirtualDubMod 1.5.10.2 (build 2540/release)
Правообладатель : http://pirat.ca
Видео
Идентификатор : 0
Формат : MPEG-4 Visual
Профиль формата : Advanced [email protected]
Параметр BVOP формата : 2
Параметр QPel формата : Нет
Параметр GMC формата : Без точки перехода
Параметр матрицы формата : Default (MPEG)
Идентификатор кодека : XVID
Идентификатор кодека/Подсказка : XviD
Продолжительность : 2 ч. 16 м.
Битрейт : 1329 Кбит/сек
Ширина : 720 пикселей
Высота : 304 пикселя
Соотношение сторон : 2,35:1
Частота кадров : 23,976 кадра/сек
Цветовое пространство : YUV
Субдискретизация насыщенности : 4:2:0
Битовая глубина : 8 бит
Тип развёртки : Прогрессивная
Метод сжатия : С потерями
Бит/(Пиксели*Кадры) : 0.253
Размер потока : 1,27 Гбайт (87%)
Библиотека кодирования : XviD 1.2.0.dev47 (UTC 2006-11-01)
Аудио
Идентификатор : 1
Формат : AC-3
Формат/Информация : Audio Coding 3
Расширение режима : CM (complete main)
Параметр Endianness формата : Big
Идентификатор кодека : 2000
Продолжительность : 2 ч. 16 м.
Вид битрейта : Постоянный
Битрейт : 192 Кбит/сек
Каналы : 2 канала
Расположение каналов : Front: L R
Частота : 48,0 КГц
Битовая глубина : 16 бит
Метод сжатия : С потерями
Размер потока : 187 Мбайт (13%)
Выравнивание : Разделение по промежуткам
Продолжительность промежутка : 42 мс. (1,00 видеокадр)
Время предзагрузки промежутка : 500 мс.
-
- --
Download / Скачать

Хотите скачать бесплатно? Зарегистрируйтесь на сайте (ссылка на регистрацию). Pirat.ca - самый быстрый торрент трекер в рунете!

Как скачивать  ·   Что такое торрент  ·   Рейтинг и ограничения

Merzogitov

207

Пост 21-Фев-2014 04:25 (спустя 4 дня)

[Q] 

Вот что нужно было называть "ОТБРОСЫ" а не тот сериал из США

_________________

[Профиль]  [ЛС] 

NektoWaso

Флибустьер

Пост 27-Фев-2014 23:07 (спустя 6 дней)

[Q] 

стильное, достойное кино!
[Профиль]  [ЛС] 

boris_burda

Штурман

Пост 28-Фев-2014 21:56 (спустя 22 часа)

[Q] 

Спасибо !COOL!
[Профиль]  [ЛС] 

robb71

Морской Волк

Пост 20-Июл-2014 08:08 (спустя 4 месяца 19 дней)

[Q] 

Посмотрю на досуге. Автору респект!!!
[Профиль]  [ЛС] 

mike2007

Штурман

Пост 20-Дек-2015 13:29 (спустя 1 год 5 месяцев)

[Q] 

Отличный фильм.
[Профиль]  [ЛС] 

Hippopotam

Флибустьер

Пост 11-Фев-2017 14:35 (спустя 1 год 1 месяц)

[Q] 

Замечательное музыкальное кино Супер!
[Профиль]  [ЛС] 

Су-34

Легенда

15878

Пост 11-Ноя-2018 22:22 (спустя 1 год 9 месяцев)

[Q] 

Когда первый раз смотрел понравился, а сейчас чота нет!??
[Профиль]  [ЛС] 
Показать сообщения:    
Ответить на тему

Текущее время: Сегодня 21:54

Часовой пояс: GMT + 4



Вы не можете начинать темы
Вы не можете отвечать на сообщения
Вы не можете редактировать свои сообщения
Вы не можете удалять свои сообщения
Вы не можете голосовать в опросах
Вы не можете прикреплять файлы к сообщениям
Вы не можете скачивать файлы

Майнать ▼