Леди и бродяга / Lady and the Tramp (Клайд Джероними, Уилфред Джексон / Clyde Geronimi, Wilfred Jackson) [1955 г., мультфильм, мелодрама, комедия, приключения, BDRip] Dub + Original (Eng) [Jolly Roger]

Ответить на тему
 
Автор
Сообщение

Пост 30-Мар-2013 21:51

[Q] 

ara1205

-Леди и бродяга / Lady and the Tramp-- Год выпуска: 1955 г.
Производство: США
Жанр: мультфильм, мелодрама, комедия, приключения
Продолжительность: 01:16:23
Перевод: Профессиональный (полное дублирование)
Оригинальный аудиопоток: Английский-Режиссер: Клайд Джероними, Уилфред Джексон / Clyde Geronimi, Wilfred Jackson-Описание: Трогательная и захватывающая история сближения двух абсолютно разных собак — породистой комнатной неженки и бездомного дворняги. Изящная и пушистая как игрушка, коккер-спаниельша Леди была любимицей хозяев, пока в их семье не появился младенец. Надетый намордник стал последней каплей, подтолкнувшей обиженную героиню к бегству.
Но на улице ее поджидала целая куча опасностей, о существовании которых она даже не подозревала. И тогда на помощь миниатюрной черноглазой красотке пришел разбитной пес Бродягя, благородство которого было не в породе, а в душе.
Проявив отзывчивость и мужество, он в конце концов завоевал сердце нежной Леди.
-- --Качество видео: BDRip
Контейнер: AVI
Видео кодек: XviD
Аудио кодек: AC3
Видео: 720x288, 23.976 fps, 1953 kbps avg, 0.393 bit/pixel
Аудио #1: Rus, 48 kHz, AC3 Dolby Digital, 3/2 (L,C,R,l,r) + LFE ch, ~384 kbps
Аудио #2: Eng, 48 kHz, AC3 Dolby Digital, 3/2 (L,C,R,l,r) + LFE ch, ~384 kbps-
Общее
Полное имя : C:\Users\Ромик\Documents\[R.G. Jolly Roger]\Леди и бродяга\Lady.i.Brodyaga.1955.BDRip.JRG.avi
Формат : AVI
Формат/Информация : Audio Video Interleave
Размер файла : 1,46 Гбайт
Продолжительность : 1 ч. 16 м.
Общий поток : 2733 Кбит/сек
Название фильма : Lady.i.Brodyaga.1955.BDRip.JRG.[pirat.ca]
Программа кодирования : VirtualDubMod 1.5.10.2 (build 2540/release)
Правообладатель : R.G. Jolly Roger
Видео
Идентификатор : 0
Формат : MPEG-4 Visual
Профиль формата : Advanced [email protected]
Параметр BVOP формата : 2
Параметр QPel формата : Нет
Параметр GMC формата : Без точки перехода
Параметр матрицы формата : Default (MPEG)
Идентификатор кодека : XVID
Идентификатор кодека/Подсказка : XviD
Продолжительность : 1 ч. 16 м.
Битрейт : 1953 Кбит/сек
Ширина : 720 пикселей
Высота : 288 пикселей
Соотношение сторон : 2,500
Частота кадров : 23,976 кадра/сек
Цветовое пространство : YUV
Субдискретизация насыщенности : 4:2:0
Битовая глубина : 8 бит
Тип развёртки : Прогрессивная
Метод сжатия : С потерями
Бит/(Пиксели*Кадры) : 0.393
Размер потока : 1,04 Гбайт (71%)
Библиотека кодирования : XviD 1.2.0.dev47 (UTC 2006-11-01)
Аудио #1
Идентификатор : 1
Формат : AC-3
Формат/Информация : Audio Coding 3
Расширение режима : CM (complete main)
Параметр Endianness формата : Big
Идентификатор кодека : 2000
Продолжительность : 1 ч. 16 м.
Вид битрейта : Постоянный
Битрейт : 384 Кбит/сек
Каналы : 6 каналов
Расположение каналов : Front: L C R, Side: L R, LFE
Частота : 48,0 КГц
Битовая глубина : 16 бит
Метод сжатия : С потерями
Размер потока : 209 Мбайт (14%)
Выравнивание : Разделение по промежуткам
Продолжительность промежутка : 42 мс. (1,01 видеокадр)
Время предзагрузки промежутка : 500 мс.
Аудио #2
Идентификатор : 2
Формат : AC-3
Формат/Информация : Audio Coding 3
Расширение режима : CM (complete main)
Параметр Endianness формата : Big
Идентификатор кодека : 2000
Продолжительность : 1 ч. 16 м.
Вид битрейта : Постоянный
Битрейт : 384 Кбит/сек
Каналы : 6 каналов
Расположение каналов : Front: L C R, Side: L R, LFE
Частота : 48,0 КГц
Битовая глубина : 16 бит
Метод сжатия : С потерями
Размер потока : 210 Мбайт (14%)
Выравнивание : Разделение по промежуткам
Продолжительность промежутка : 42 мс. (1,00 видеокадр)
Время предзагрузки промежутка : 500 мс.
-
- --
Download / Скачать

Хотите скачать бесплатно? Зарегистрируйтесь на сайте (ссылка на регистрацию). Pirat.ca - самый быстрый торрент трекер в рунете!

Как скачивать  ·   Что такое торрент  ·   Рейтинг и ограничения

stbv

Морской Волк

Пост 01-Апр-2013 16:31 (спустя 1 день 18 часов)

[Q] 

[Профиль]  [ЛС] 

velik

Штурман

Пост 22-Июл-2014 15:10 (спустя 1 год 3 месяца)

[Q] 

Раздавать будем или как? Скорость как у черепахи дайте скорости(((((((((((((((
[Профиль]  [ЛС] 

flesh_208

Флибустьер

Пост 23-Окт-2018 15:16 (спустя 4 года 3 месяца)

[Q] 

Хороший мультик)
[Профиль]  [ЛС] 

Су-34

Легенда

15886

Пост 11-Ноя-2018 22:23 (спустя 19 дней)

[Q] 

1955 год?? так мы еще не родились, тока наши родители!!!
[Профиль]  [ЛС] 
Показать сообщения:    
Ответить на тему

Текущее время: Сегодня 04:01

Часовой пояс: GMT + 4



Вы не можете начинать темы
Вы не можете отвечать на сообщения
Вы не можете редактировать свои сообщения
Вы не можете удалять свои сообщения
Вы не можете голосовать в опросах
Вы не можете прикреплять файлы к сообщениям
Вы не можете скачивать файлы

Майнать ▼