Робин Гуд / Robin Hood (Вольфганг Райтерман / Wolfgang Reitherman) [1973 г., мультфильм, мелодрама, комедия, приключения, HDRip-AVC] Dub + MVO + Original (Eng) [Jolly Roger]

Ответить на тему
 
Автор
Сообщение

Пост 02-Авг-2013 15:37

[Q] 

erchine

-Робин Гуд / Robin Hood-- Год выпуска: 1973 г.
Производство: США
Жанр: мультфильм, мелодрама, комедия, приключения
Продолжительность: 01:23:02
Перевод: Профессиональный (полное дублирование)
Перевод: Профессиональный (многоголосый закадровый) "Карусель"
Оригинальный аудиопоток: английский
Режиссер: Вольфганг Райтерман / Wolfgang Reitherman
В ролях: Роджер Миллер, Питер Устинов, Терри-Томас, Брайан Бедфорд, Моника Эванс, Фил Харрис, Энди Дивайн, Кэрол Шелли, Пэт Баттрем, Джордж Линдси
Описание: Добро пожаловать в дремучий Шервудский лес, где ты встретишь храброго и забавного лисенка по имени Робин Гуд и его лучшего друга Крошку Джона — большого добродушного медведя.
Эту веселую компанию давно разыскивает шериф Нотингема. Он готовит друзьям ловушку: на турнире лучников Робин Гуда будет ждать засада. Но отважный лисенок все равно собирается участвовать в состязании: ведь только там у него есть шанс увидеть красавицу Мариан.
И вот турнир начался, однако шериф никак не может узнать среди участников переодетого Робин Гуда. Правда, один точный выстрел способен сразу выдать самого лучшего стрелка в королевстве.
Качество видео: HDRip-AVC
Контейнер: MKV
Видео кодек: H.264
Аудио кодек: AC3
Видео: MPEG4 Video (H264) 1008x608 23.976fps 1725 Kbps
Аудио: Dolby AC3 48000Hz 2ch 192 kbps / Дублированный
Аудио 2: Dolby AC3 48000Hz 6ch 384 kbps / Многоголосый
Аудио 3: Dolby AC3 48000Hz 2ch 192 kbps / Английский

Общее
Уникальный идентификатор : 206722238338279534135199260743509926160 (0x9B854141099F0C00AF8156531912E110)
Полное имя : D:\Robin.Gyd.1973.H.264.HDRip-AVC.JRG.mkv
Формат : Matroska
Версия формата : Version 2
Размер файла : 1,45 Гбайт
Продолжительность : 1 ч. 23 м.
Общий поток : 2495 Кбит/сек
Название фильма : The Jolly Roger Release Group
Дата кодирования : UTC 2013-08-02 11:23:09
Программа кодирования : mkvmerge v4.0.0 ('The Stars were mine') збірка від Jun 6 2010 16:18:42
Библиотека кодирования : libebml v1.0.0 + libmatroska v1.0.0
Видео
Идентификатор : 1
Формат : AVC
Формат/Информация : Advanced Video Codec
Профиль формата : [email protected]
Параметр CABAC формата : Да
Параметр ReFrames формата : 7 кадров
Идентификатор кодека : V_MPEG4/ISO/AVC
Продолжительность : 1 ч. 23 м.
Битрейт : 1725 Кбит/сек
Ширина : 1008 пикселей
Высота : 608 пикселей
Соотношение сторон : 1,658
Режим частоты кадров : Постоянный
Частота кадров : 23,976 кадра/сек
Цветовое пространство : YUV
Субдискретизация насыщенности : 4:2:0
Битовая глубина : 8 бит
Тип развёртки : Прогрессивная
Бит/(Пиксели*Кадры) : 0.117
Размер потока : 996 Мбайт (67%)
Библиотека кодирования : x264 core 130 r2273 b3065e6
Настройки программы : cabac=1 / ref=7 / deblock=1:-1:-1 / analyse=0x3:0x133 / me=umh / subme=9 / psy=1 / psy_rd=1.00:0.15 / mixed_ref=1 / me_range=24 / chroma_me=1 / trellis=2 / 8x8dct=1 / cqm=0 / deadzone=21,11 / fast_pskip=0 / chroma_qp_offset=-3 / threads=3 / lookahead_threads=1 / sliced_threads=0 / nr=0 / decimate=1 / interlaced=0 / bluray_compat=0 / constrained_intra=0 / bframes=6 / b_pyramid=2 / b_adapt=2 / b_bias=0 / direct=3 / weightb=1 / open_gop=0 / weightp=2 / keyint=250 / keyint_min=23 / scenecut=40 / intra_refresh=0 / rc_lookahead=50 / rc=2pass / mbtree=1 / bitrate=1725 / ratetol=1.0 / qcomp=0.60 / qpmin=0 / qpmax=69 / qpstep=4 / cplxblur=20.0 / qblur=0.5 / ip_ratio=1.40 / aq=1:1.00
Default : Нет
Forced : Нет
Аудио #1
Идентификатор : 2
Формат : AC-3
Формат/Информация : Audio Coding 3
Расширение режима : CM (complete main)
Параметр Endianness формата : Big
Идентификатор кодека : A_AC3
Продолжительность : 1 ч. 23 м.
Вид битрейта : Постоянный
Битрейт : 192 Кбит/сек
Каналы : 2 канала
Расположение каналов : Front: L R
Частота : 48,0 КГц
Битовая глубина : 16 бит
Метод сжатия : С потерями
Размер потока : 114 Мбайт (8%)
Язык : Russian
Default : Да
Forced : Нет
Аудио #2
Идентификатор : 3
Формат : AC-3
Формат/Информация : Audio Coding 3
Расширение режима : CM (complete main)
Параметр Endianness формата : Big
Идентификатор кодека : A_AC3
Продолжительность : 1 ч. 23 м.
Вид битрейта : Постоянный
Битрейт : 384 Кбит/сек
Каналы : 6 каналов
Расположение каналов : Front: L C R, Side: L R, LFE
Частота : 48,0 КГц
Битовая глубина : 16 бит
Метод сжатия : С потерями
Размер потока : 228 Мбайт (15%)
Язык : Russian
Default : Нет
Forced : Нет
Аудио #3
Идентификатор : 4
Формат : AC-3
Формат/Информация : Audio Coding 3
Расширение режима : CM (complete main)
Параметр Endianness формата : Big
Идентификатор кодека : A_AC3
Продолжительность : 1 ч. 23 м.
Вид битрейта : Постоянный
Битрейт : 192 Кбит/сек
Каналы : 2 канала
Расположение каналов : Front: L R
Частота : 48,0 КГц
Битовая глубина : 16 бит
Метод сжатия : С потерями
Размер потока : 114 Мбайт (8%)
Язык : English
Default : Нет
Forced : Нет

Download / Скачать

Хотите скачать бесплатно? Зарегистрируйтесь на сайте (ссылка на регистрацию). Pirat.ca - самый быстрый торрент трекер в рунете!

Как скачивать  ·   Что такое торрент  ·   Рейтинг и ограничения

Пост 02-Авг-2013 15:39 (спустя 1 минута)

Топик был перенесен из форума Оформление раздач (R.G. Jolly Roger) в форум Мультфильмы

erchine
 

gnezd77

Флибустьер

Пост 02-Авг-2013 17:33 (спустя 1 час 56 минут)

[Q] 

Супер!
[Профиль]  [ЛС] 

luka444

Корсар

Пост 02-Авг-2013 18:27 (спустя 54 минуты)

[Q] 

Автору респект!!!
[Профиль]  [ЛС] 

Alexe10

Гроза морей

36

Пост 04-Авг-2013 07:43 (спустя 1 день 13 часов)

[Q] 

Супер!
[Профиль]  [ЛС] 

leonid.

Флибустьер

Пост 04-Авг-2013 14:01 (спустя 6 часов)

[Q] 

Спасибо!!!
[Профиль]  [ЛС] 

flesh_208

Флибустьер

Пост 23-Окт-2018 13:45 (спустя 5 лет 2 месяца)

[Q] 

Всегда нравилась эта история)
[Профиль]  [ЛС] 

Су-34

Легенда

15827

Пост 11-Ноя-2018 22:25 (спустя 19 дней)

[Q] 

откуда цей шедевр, ни скринов ни постера!!! Зуб даю...
[Профиль]  [ЛС] 
Показать сообщения:    
Ответить на тему

Текущее время: Сегодня 07:17

Часовой пояс: GMT + 4



Вы не можете начинать темы
Вы не можете отвечать на сообщения
Вы не можете редактировать свои сообщения
Вы не можете удалять свои сообщения
Вы не можете голосовать в опросах
Вы не можете прикреплять файлы к сообщениям
Вы не можете скачивать файлы

Майнать ▼