Кровоточащая сталь / Ji qi zhi xue (Чжан Лицзя / Leo Zhang (as Lijia Zhang)) [2017 г., фантастика, боевик, триллер, HDTVRip] MVO [КОЛОБОК] + Sub (Chi, Eng)

Ответить на тему
 
Автор
Сообщение

Пост 05-Янв-2018 11:52

[Q] 

aleksey99

--Кровоточащая сталь / Ji qi zhi xue-- Производство: Китай, Гонкон / Heyi Pictures, Sparkle Roll Media, Village Roadshow Pictures Asia
Год выпуска: 2017 г.
Жанр: фантастика, боевик, триллер
Продолжительность: 01:47:06--Мировая премьера: 22 декабря 2017--Перевод: многоголосый, закадровый [КОЛОБОК]--Режиссер: Чжан Лицзя / Leo Zhang (as Lijia Zhang)--В ролях: Джеки Чан, Каллэн Мулвей, Тесс Хобрич, Дэмиен Гарви, Ким Джинджелл, Ольга Миллер, Шоу Ло, Брахим Ачаббаке--Описание: Крутой агент спецназа пытается защитить молодую женщину от криминальной группировки. И в то же время он чувствует с ней странную связь, как будто они встречались в другой жизни.-- --Качество видео: HDTVRip
Контейнер: AVI
Видео кодек: XviD
Аудио кодек: AC3
Видео: 720x304 (2.37:1), 23.976 fps, XviD build 50 ~1625 kbps avg, 0.31 bit/pixel
Аудио: 48 kHz, AC3 Dolby Digital, 2/0 (L,R) ch, ~192 kbps
Cубтитры: Китайские, Английские [неотключаемые] .
Общее
Полное имя : H:\Torrent2\Bleeding.Steel.2017.P.HDTVRip.14OOMB.avi
Формат : AVI
Формат/Информация : Audio Video Interleave
Размер файла : 1,37 Гбайт
Продолжительность : 1 ч. 47 м.
Общий поток : 1827 Кбит/сек
Программа кодирования : VirtualDubMod 1.5.10.2 (build 2540/release)
Библиотека кодирования : VirtualDubMod build 2540/release
Видео
Идентификатор : 0
Формат : MPEG-4 Visual
Профиль формата : Advanced [email protected]
Параметр BVOP формата : 2
Параметр QPel формата : Нет
Параметр GMC формата : Без точки перехода
Параметр матрицы формата : Default (MPEG)
Идентификатор кодека : XVID
Идентификатор кодека/Подсказка : XviD
Продолжительность : 1 ч. 47 м.
Битрейт : 1626 Кбит/сек
Ширина : 720 пикселей
Высота : 304 пикселя
Соотношение сторон : 2,35:1
Частота кадров : 23,976 (24000/1001) кадра/сек
Цветовое пространство : YUV
Субдискретизация насыщенности : 4:2:0
Битовая глубина : 8 бит
Тип развёртки : Прогрессивная
Метод сжатия : С потерями
Бит/(Пиксели*Кадры) : 0.310
Размер потока : 1,22 Гбайт (89%)
Библиотека кодирования : XviD 1.2.1 (UTC 2008-12-04)
Аудио
Идентификатор : 1
Формат : AC-3
Формат/Информация : Audio Coding 3
Расширение режима : CM (complete main)
Параметр Endianness формата : Big
Идентификатор кодека : 2000
Продолжительность : 1 ч. 47 м.
Вид битрейта : Постоянный
Битрейт : 192 Кбит/сек
Каналы : 2 канала
Расположение каналов : Front: L R
Частота : 48,0 КГц
Частота кадров : 31,250 кадров/сек (1536 spf)
Метод сжатия : С потерями
Размер потока : 147 Мбайт (11%)
Выравнивание : Разделение по промежуткам
Продолжительность промежутка : 42 мс. (1,00 видеокадр)
Время предзагрузки промежутка : 500 мс.
Трейлер
Download / Скачать

Хотите скачать бесплатно? Зарегистрируйтесь на сайте (ссылка на регистрацию). Pirat.ca - самый быстрый торрент трекер в рунете!

Как скачивать  ·   Что такое торрент  ·   Рейтинг и ограничения

zvernight

Гроза морей

Пост 06-Янв-2018 00:26 (спустя 12 часов)

[Q] 

Вездесущий Джеки Чан :)
Одобрямс!
Лови бочку
[Профиль]  [ЛС] 

Towariw

Лоцман

Пост 06-Янв-2018 05:07 (спустя 4 часа)

[Q] 

Забавный фильм для тех кто любит джеки чана. Его стиль заметен
[Профиль]  [ЛС] 

rsel

Морской Волк

Пост 06-Янв-2018 21:52 (спустя 16 часов)

[Q] 

Что то Джеки зачастил... коммуналку не вывозит что ли? db
[Профиль]  [ЛС] 

Skat.56

Легенда

453

Пост 08-Янв-2018 07:49 (спустя 1 день 9 часов)

[Q] 

Самое замечательное, это новая реклама! Фильм не цепляет и не бесит, так включить для фона вместо новостей и картошку почистить.

_________________
[Профиль]  [ЛС] 

Пост 09-Фев-2018 16:50 (спустя 1 месяц 1 день)

Топик был перенесен из форума Новинки (HD|DVD|BD| TV|SAT|PDTV| - Rips) в форум Китайское кино
aleksey99
 

Су-34

Легенда

15827

Пост 11-Ноя-2018 22:42 (спустя 10 месяцев 3 дня)

[Q] 

Старый добрый Джеки!!
[Профиль]  [ЛС] 
Показать сообщения:    
Ответить на тему

Текущее время: Сегодня 06:17

Часовой пояс: GMT + 4



Вы не можете начинать темы
Вы не можете отвечать на сообщения
Вы не можете редактировать свои сообщения
Вы не можете удалять свои сообщения
Вы не можете голосовать в опросах
Вы не можете прикреплять файлы к сообщениям
Вы не можете скачивать файлы

Майнать ▼