Король обезьян / Xi You Ji Zhi Da Sheng gui lai (Тиан Сяо Пенг / Tian Xiao Peng) [2015 г., мультфильм, WEB-DLRip] Dub [Чистый звук]

Ответить на тему
 
Автор
Сообщение

Пост 09-Май-2016 19:57

[Q] 

aleksey99

--Король обезьян / Xi You Ji Zhi Da Sheng gui lai-- Производство: Китай, Beijing Weiyingshidai Culture & Media, Hengdian Chinese Film Production Co., October Animation Studio
Год выпуска: 2015 г.
Жанр: мультфильм
Продолжительность: 01:26:51--Мировая премьера: 10 июля 2015
Российская премьера: 19 марта 2016, «Top Film Distribution»--Перевод: Профессиональный (полное дублирование) [Чистый звук]--Режиссер: Тиан Сяо Пенг / Tian Xiao Peng--В ролях: Никки Брайар, Федор Чин, Ника Футтерман, Джеймс Хонг, Дэвид С. Юнг--Описание: Всемогущий Король Обезьян однажды прогневил богов и был заключен ими в ледяную бездну среди Мраморных гор. Спустя 500 лет маленький мальчик случайно снимает заклятие и освобождает героя.
Теперь Короля ждет новое испытание: ему предстоит сразиться с Кровожадным Драконом. Сможет ли великий герой, владевший магией и кунг-фу, спасти людей и победить Могучего Дракона?-- --Качество видео: WEB-DLRip
Контейнер: AVI
Видео кодек: XviD
Аудио кодек: AC3
Видео: 720x304 (2.37:1), 24 fps, XviD build 73 ~2202 kbps avg, 0.42 bit/pixel
Аудио: 48 kHz, AC3 Dolby Digital, 2/0 (L,R) ch, ~192 kbps
Cубтитры: отсутствуют
Общее
Полное имя : H:\Torrent2\Korol.Obezjan.Vozvrashhenie.Geroja.2015.D.WEB-DLRip.1.46Gb_by_Twi7ter.avi
Формат : AVI
Формат/Информация : Audio Video Interleave
Размер файла : 1,46 Гбайт
Продолжительность : 1 ч. 26 м.
Общий поток : 2404 Кбит/сек
Программа кодирования : VirtualDubMod 1.5.10.3 (build 2550/release)
Видео
Идентификатор : 0
Формат : MPEG-4 Visual
Профиль формата : Advanced [email protected]
Параметр BVOP формата : 2
Параметр QPel формата : Нет
Параметр GMC формата : Без точки перехода
Параметр матрицы формата : Выборочная
Идентификатор кодека : XVID
Идентификатор кодека/Подсказка : XviD
Продолжительность : 1 ч. 26 м.
Битрейт : 2203 Кбит/сек
Ширина : 720 пикселей
Высота : 304 пикселя
Соотношение сторон : 2,35:1
Частота кадров : 24,000 кадра/сек
Цветовое пространство : YUV
Субдискретизация насыщенности : 4:2:0
Битовая глубина : 8 бит
Тип развёртки : Прогрессивная
Метод сжатия : С потерями
Бит/(Пиксели*Кадры) : 0.419
Размер потока : 1,34 Гбайт (92%)
Библиотека кодирования : XviD 73
Аудио
Идентификатор : 1
Формат : AC-3
Формат/Информация : Audio Coding 3
Расширение режима : CM (complete main)
Параметр Endianness формата : Big
Идентификатор кодека : 2000
Продолжительность : 1 ч. 26 м.
Вид битрейта : Постоянный
Битрейт : 192 Кбит/сек
Каналы : 2 канала
Расположение каналов : Front: L R
Частота : 48,0 КГц
Частота кадров : 31,250 кадров/сек (1536 spf)
Метод сжатия : С потерями
Размер потока : 119 Мбайт (8%)
Выравнивание : Разделение по промежуткам
Продолжительность промежутка : 42 мс. (1,00 видеокадр)
Время предзагрузки промежутка : 500 мс.
Трейлер
Download / Скачать

Хотите скачать бесплатно? Зарегистрируйтесь на сайте (ссылка на регистрацию). Pirat.ca - самый быстрый торрент трекер в рунете!

Как скачивать  ·   Что такое торрент  ·   Рейтинг и ограничения

buzuvir

Корсар

Пост 10-Май-2016 03:23 (спустя 7 часов)

[Q] 

Спасибо посмотрим. Пиратка рулез!!!

_________________
[Профиль]  [ЛС] 

butyas

Корсар

Пост 10-Май-2016 11:31 (спустя 8 часов)

[Q] 

прикольный мульт
[Профиль]  [ЛС] 

shayhi79

Морской Волк

Пост 11-Май-2016 22:16 (спустя 1 день 10 часов)

[Q] 

Спасибо! Пиратка рулит!
[Профиль]  [ЛС] 

Wolf

59810

Пост 14-Май-2016 20:14 (спустя 2 дня 21 час)

[Q] 

!COOL! Автору респект!!!
[Профиль]  [ЛС] 

Пост 24-Июн-2016 21:32 (спустя 1 месяц 10 дней)

Топик был перенесен из форума Новинки (HD|DVD|BD| TV|SAT|PDTV| - Rips) в форум Китайское кино
aleksey99
 

pan_tera

Корсар

Пост 04-Янв-2017 01:00 (спустя 7 месяцев 20 дней)

[Q] 

butyas, Спасибо, глянем. Лови бочку
[Профиль]  [ЛС] 

Су-34

Легенда

15827

Пост 11-Ноя-2018 22:46 (спустя 1 год 10 месяцев)

[Q] 

мульт удался!!
[Профиль]  [ЛС] 
Показать сообщения:    
Ответить на тему

Текущее время: Сегодня 07:04

Часовой пояс: GMT + 4



Вы не можете начинать темы
Вы не можете отвечать на сообщения
Вы не можете редактировать свои сообщения
Вы не можете удалять свои сообщения
Вы не можете голосовать в опросах
Вы не можете прикреплять файлы к сообщениям
Вы не можете скачивать файлы

Майнать ▼