Ментовские войны / Сезон: 11 / 1-8 серии из 16 (Алан Дзоциев) [2017 г., Боевик, детектив, криминал, HDTVRip]

Ответить на тему
 
Автор
Сообщение

Пост 28-Ноя-2017 14:54

[Q] 

dimas1000

-Ментовские войны -- Производство: Россия, ООО «Кинопроизводственный центр», ООО «Прогресс-Студия»
Жанр: Боевик, детектив, криминал
Год выпуска: 2017 г.
Продолжительность: 00:44:30
Озвучивание: Оригинал
Режиссёр: Алан Дзоциев-В ролях: Александр Устюгов, Всеволод Цурило, Андрей Кузнецов, Роберт Студеновский, Андрей Аладьин, Мария Иванова (IV), Светлана Смирнова-Кацагаджиева, Дмитрий Лебедев (III), Александр Лисицын, Марина Игнатова, Денис Решетников, Евгения Устюгова, Александр Марушев, Ирина Сотикова, Андрей Мокеев, Руслан Китайгородский, Кристина Оленникова, Наталья Мызникова, Арсений Бородин (II), Андрей Биланов-Описание: Роман Шилов, занявший высокий пост заместителя начальника ГУ МВД по Санкт-Петербургу и Ленинградской области, выходит на новый уровень борьбы с оборотнями в погонах. Теперь он вынужден привыкать к нелюбимой бумажной волоките, ради которой оставил оперативную работу, и координировать работу всей городской полиции. Но далеко не все подчинённые одобряют излишнее рвение Романа Георгиевича...-Качество видео: HDTVRip
Контейнер: AVI
Видео кодек: XviD
Аудио кодек: AC3
Видео: MPEG-4 XviD, (720x400),1800 Кбит/с, 25.000 кадра/сек
Аудио: AC3, 2 ch,192 kbps (Rus) 48.0 KHz Оригинал
Cубтитры: отсутствуют
Имя файла: 01.Mentovskie.voyny-11.2017.HDTVRip.Files-x.avi
Формат файла: .avi (AVI)
Размер файла: 548,86 MB (575 522 816 bytes)
Длительность: 44mn 47s
Навигация по главам: Нет
Битрейт (все потоки): 1 713 Kbps
Создан при помощи: VirtualDubMod 1.5.10.3 | www.virtualdub-fr.org || (build 2550/release)
Использовалась библиотека: VirtualDubMod build 2550/release
Обложка: Отсутствует
:
Название: 01.Mentovskie.voyny-11.2017.HDTVRip.Files-x
:
Тип потока: Видео
Длительность: 00:44:47
Кодек: MPEG-4 Visual
Кодек/профиль: Advanced [email protected]
Кодек/ID: XVID
Размеры изображения: 720 x 400 (16:9)
Частота кадров: 25.000 fps
Размер потока: 484 MiB (88%)
Битрейт: 1 512 Kbps
Метод сжатия: Lossy
Библиотека кодирования: XviD 73
Цветовое пространство: YUV
Тип развёртки: Progressive
Колориметрия: 4:2:0
Глубина: 8 bits
:
Тип потока: Звук #1
Длительность: 00:44:47.360
Кодек: AC-3
Кодек/описание: Audio Coding 3
Кодек/ID: 2000
Частота дискретизации: 48.0 KHz
Каналов: 2 channels
Битрейт: 192 Kbps
Битрейт/тип: Constant
Размер потока: 61.5 MiB (11%)
Глубина: 16 bits
Метод сжатия: Lossy
Имя файла: 01.Mentovskie.voyny-11.2017.HDTVRip.Files-x.avi
Формат файла: .avi (AVI)
Размер файла: 548,86 MB (575 522 816 bytes)
Длительность: 44mn 47s
Навигация по главам: Нет
Битрейт (все потоки): 1 713 Kbps
Создан при помощи: VirtualDubMod 1.5.10.3 | www.virtualdub-fr.org || (build 2550/release)
Использовалась библиотека: VirtualDubMod build 2550/release
Обложка: Отсутствует
:
Название: 01.Mentovskie.voyny-11.2017.HDTVRip.Files-x
:
Тип потока: Видео
Длительность: 00:44:47
Кодек: MPEG-4 Visual
Кодек/профиль: Advanced [email protected]
Кодек/ID: XVID
Размеры изображения: 720 x 400 (16:9)
Частота кадров: 25.000 fps
Размер потока: 484 MiB (88%)
Битрейт: 1 512 Kbps
Метод сжатия: Lossy
Библиотека кодирования: XviD 73
Цветовое пространство: YUV
Тип развёртки: Progressive
Колориметрия: 4:2:0
Глубина: 8 bits
:
Тип потока: Звук #1
Длительность: 00:44:47.360
Кодек: AC-3
Кодек/описание: Audio Coding 3
Кодек/ID: 2000
Частота дискретизации: 48.0 KHz
Каналов: 2 channels
Битрейт: 192 Kbps
Битрейт/тип: Constant
Размер потока: 61.5 MiB (11%)
Глубина: 16 bits
Метод сжатия: Lossy
Внимание! Раздача ведётся путём добавления новых серий; при каждом добавлении создётся новый торрент. Чтобы начать докачку новой серии, пользователям необходимо сделать следующее:
Остановить скачивание,
Удалить старый торрент у себя из клиента (старые серии удалять не надо),
Скачать новый торрент и запустить его у себя в клиенте вместо старого, при этом указать клиенту путь в старую папку куда и должно происходить скачивание новых серий.
Ваш клиент при этом должен произвести хеширование (проверку) старой папки (если не производит сам - помогите ему сделать это), и будет докачивать только те серии которых у вас ещё нет. Старые серии при этом не удаляются, а продолжают раздаваться!
Eсли вы уже удалили старые серии, то предотвратить повторную закачку старых серий можно, отжав галочку в соответсвующих местах при запуске нового торрента. По возможности, желательно не удалять старые серии как можно дольше чтобы релизёр не столько продолжал раздавать старые серии, а смог сконцентрироваться на новых.
ДОБАВЛЕНА 05-08 СЕРИЯ ПЕРЕЗАЛЕЙТЕ ТОРРЕНТ ФАИЛ
Download / Скачать

Хотите скачать бесплатно? Зарегистрируйтесь на сайте (ссылка на регистрацию). Pirat.ca - самый быстрый торрент трекер в рунете!

Как скачивать  ·   Что такое торрент  ·   Рейтинг и ограничения



Последний раз редактировалось: dimas1000 (2017-12-01 09:24), всего редактировалось 5 раз(а)

dimas1000 ®

1003

Пост 28-Ноя-2017 14:59 (спустя 5 минут)

[Q] 

Всем качать!!! Супер! сериал супер!!!!!!!!!
[Профиль]  [ЛС] 

Pirat177

Флибустьер

Пост 01-Дек-2017 18:36 (спустя 3 дня)

[Q] 

Всем качать!!! Дождусь все серии и скачаю...
Добавлено спустя 29 секунд:
И раздам долго......
[Профиль]  [ЛС] 

Victorsalata

Флибустьер

Пост 29-Авг-2018 15:38 (спустя 8 месяцев 27 дней)

[Q] 

Спасибо. Буду обязательно смотреть.
[Профиль]  [ЛС] 

grosboy

Гроза морей

Пост 05-Ноя-2018 00:20 (спустя 2 месяца 6 дней)

[Q] 

Всё как всегда интересно. Когда выйдет продолжение???

_________________
Щастье есть - его не может не быть...
[Профиль]  [ЛС] 

Су-34

Легенда

15827

Пост 12-Ноя-2018 17:27 (спустя 7 дней)

[Q] 

По телеку надоел, а вы еще здесь выкладываете!!!
[Профиль]  [ЛС] 
Показать сообщения:    
Ответить на тему

Текущее время: Сегодня 06:37

Часовой пояс: GMT + 4



Вы не можете начинать темы
Вы не можете отвечать на сообщения
Вы не можете редактировать свои сообщения
Вы не можете удалять свои сообщения
Вы не можете голосовать в опросах
Вы не можете прикреплять файлы к сообщениям
Вы не можете скачивать файлы

Майнать ▼