С двумя девушками / Iddarammayilatho (Пури Джаганнатх / Puri Jagannadh) [2013 г., боевик, триллер, мелодрама, HDRip] MVO + Sub (Rus)

Ответить на тему
 
Автор
Сообщение

Пост 22-Янв-2017 01:58

[Q] 

somik

-С двумя девушками / Iddarammayilatho-- Производство: Индия
Год выпуска: 2013 г.
Жанр: боевик, триллер, мелодрама
Продолжительность: 02:18:01
Мировая премьера: 30 мая 2013
Перевод: Профессиональный (многоголосый, закадровый) [ICG]
Режиссер: Пури Джаганнатх / Puri Jagannadh-В ролях: Аллу Арджун, Амала Пол, Катрин Треса, Нассер, Таникелла Бхарани, Брахманандам, Стивен Дасс, Байрон Гибсон, Вайбхав Джаган, Дэмиэн Мевис.-Описание: Аканша приехала в Испанию изучать психологию, предчувствуя свободу нового европейского мира. В съемной комнате она обнаружила дневник незнакомки, который открыл перед ней историю красивой и трогательной любви Комалы и Санджу. Аканша сопереживала им, листая страницу за страницей, словно рукописный роман. Пока неожиданно не столкнулась лицом к лицу с героем этого романа. Что-то насторожило и привлекло ее в этом парне. Быть может, затаенная печаль в глубине сердца? А где же тогда Комала, любовь которой пылала огнем со страниц дневника?-
Качество видео: HDRip
Контейнер: AVI
Видео кодек: XviD
Аудио кодек: AC3
Видео: 720x304 (2.37:1), 24 fps, XviD MPEG-4, 1570 kbps avg, 0.30 bit/pixel
Аудио: 48 kHz, AC3 Dolby Digital, 3/2 (L,C,R,l,r) + LFE ch, 448 kbps
Cубтитры: русские
Формат субтитров: softsub (SRT)
Доп. информация о субтитрах: внешние (полные, на песни)
Самая точная характеристика фильма — типичнейшая телужская масала со всеми обязательными компонентами.
А именно, комики, имеющие к сюжету очень малое отношение, чьи шутки чаще вызывают раздражение, а не улыбку, и отсутствие которых фильму скорее пошло бы на пользу, музыкальные клипы — в целом неплохие (Банни, по-моему, вообще очень прилично танцует), но вот подходящее место для некоторых найдено не было. Героини (а их в фильме аж две) благополучно теряются не фоне главного героя, у которого, понятно, кулаки крепче, чем у терминатора, к тому же умен, трогательно любит родителей, ну и девушку, конечно, а еще он на гитаре играет (словом, не парень — мечта). О нереальности драк, полностью отрицающих законы физики, и говорить не стоит — это ж Толливуд. Ну и самый главный элемент — сюжет, который можно охарактеризовать одним словом — месть. А значит, переплетаются две линии: есть «до» — светлая и радостная, и «после» — полная гнева и печали, в которой все подчинено главной цели — любым способом добраться до врага и уничтожить.
Фильм конечно же понравится фанатам Аллу Арджуна и может понравиться начинающим любителям толливудских боевиков, если же таких фильмов просмотрено n-ое количество, то скорее всего вам будет скучно, все слишком предсказуемо и стандартно.
Общее
Полное имя : D:\D\С двумя девушками Iddarammayilatho (2013)\Iddarammayilatho.2013.HDRip.Rus.Original.ICG.[pirat.ca]\Iddarammayilatho.2013.HDRip.Rus.Original.ICG.[pirat.ca].avi
Формат : AVI
Формат/Информация : Audio Video Interleave
Размер файла : 1,95 Гбайт
Продолжительность : 2 ч. 18 м.
Общий поток : 2027 Кбит/сек
Программа кодирования : VirtualDubMod 1.5.10.3 (build 2550/release)
Библиотека кодирования : VirtualDubMod build 2550/release
Видео
Идентификатор : 0
Формат : MPEG-4 Visual
Профиль формата : Advanced [email protected]
Параметр BVOP формата : 1
Параметр QPel формата : Нет
Параметр GMC формата : Без точки перехода
Параметр матрицы формата : Выборочная
Идентификатор кодека : XVID
Идентификатор кодека/Подсказка : XviD
Продолжительность : 2 ч. 18 м.
Битрейт : 1570 Кбит/сек
Ширина : 720 пикселей
Высота : 304 пикселя
Соотношение сторон : 2,35:1
Частота кадров : 24,000 кадра/сек
Цветовое пространство : YUV
Субдискретизация насыщенности : 4:2:0
Битовая глубина : 8 бит
Тип развёртки : Прогрессивная
Метод сжатия : С потерями
Бит/(Пиксели*Кадры) : 0.299
Размер потока : 1,51 Гбайт (77%)
Библиотека кодирования : XviD 64
Аудио
Идентификатор : 1
Формат : AC-3
Формат/Информация : Audio Coding 3
Расширение режима : CM (complete main)
Параметр Endianness формата : Big
Идентификатор кодека : 2000
Продолжительность : 2 ч. 18 м.
Вид битрейта : Постоянный
Битрейт : 448 Кбит/сек
Каналы : 6 каналов
Расположение каналов : Front: L C R, Side: L R, LFE
Частота : 48,0 КГц
Частота кадров : 31,250 кадров/сек (1536 spf)
Метод сжатия : С потерями
Задержка видео : 17 мс.
Размер потока : 442 Мбайт (22%)
Выравнивание : Разделение по промежуткам
Продолжительность промежутка : 42 мс. (1,00 видеокадр)
Время предзагрузки промежутка : 500 мс.
Download / Скачать

Хотите скачать бесплатно? Зарегистрируйтесь на сайте (ссылка на регистрацию). Pirat.ca - самый быстрый торрент трекер в рунете!

Как скачивать  ·   Что такое торрент  ·   Рейтинг и ограничения

flesh_208

Флибустьер

Пост 24-Окт-2018 09:50 (спустя 1 год 9 месяцев)

[Q] 

Такие фильмы популярны в России, гляну)
[Профиль]  [ЛС] 

Су-34

Легенда

15827

Пост 12-Ноя-2018 17:33 (спустя 19 дней)

[Q] 

а девахи на постере класс
[Профиль]  [ЛС] 
Показать сообщения:    
Ответить на тему

Текущее время: Сегодня 07:26

Часовой пояс: GMT + 4



Вы не можете начинать темы
Вы не можете отвечать на сообщения
Вы не можете редактировать свои сообщения
Вы не можете удалять свои сообщения
Вы не можете голосовать в опросах
Вы не можете прикреплять файлы к сообщениям
Вы не можете скачивать файлы

Майнать ▼