Трое / Te3n (Рибху Дасгупта / Ribhu Dasgupta) [2016 г., триллер, драма, детектив, HDRip] MVO + Sub (Rus неотключаемые на песни)

Ответить на тему
 
Автор
Сообщение

Пост 30-Июл-2016 02:42

[Q] 

somik

-Трое / Te3n-- Производство: Индия, Blue Waters Motion Pictures, Cinemaa, EndemolShine India, Kross Pictures, ...
Год выпуска: 2016 г.
Жанр: триллер, драма, детектив
Продолжительность: 02:16:02
Мировая премьера: 9 июня 2016
Перевод: Профессиональный (многоголосый, закадровый)
Режиссер: Рибху Дасгупта / Ribhu Dasgupta-В ролях: Амитабх Баччан, Навазуддин Сиддикуи, Видья Балан, Мукеш Чхабра, Падмавати Рао, Сабьясачи Чакраборти-Описание: 8 лет назад была похищена девочка. Её похититель исчез без следа. Полиции так и не удалось найти его. Спустя 8 лет, таким же способом совершается ещё одно похищение. Теперь три человека пытаются любым способом найти похитителя: полицейский, а ныне священник, который когда-то расследовал это дело, дедушка, внучку которого украли средь бела дня, и женщина-детектив, которая взялась за расследование дела о втором похищении...-
Качество видео: HDRip
Контейнер: AVI
Видео кодек: XviD
Аудио кодек: AC3
Видео: 720x304 (2.37:1), 23.976 fps, XviD build 64 ~1399 kbps avg, 0.27 bit/pixel
Аудио: 48 kHz, AC3 Dolby Digital, 3/2 (L,C,R,l,r) + LFE ch, ~448 kbps
Cубтитры: русские
Формат субтитров: hardsub (неотключаемые)
Доп. информация о субтитрах: на песни
Общее
Полное имя : D:\D\Трое\Troe.2016.HDRip.[pirat.ca].avi
Формат : AVI
Формат/Информация : Audio Video Interleave
Размер файла : 1,76 Гбайт
Продолжительность : 2 ч. 16 м.
Общий поток : 1857 Кбит/сек
Название фильма : Troe.2016.HDRip.[pirat.ca]
Программа кодирования : VirtualDubMod 1.5.10.3 | www.virtualdub-fr.org || (build 2550/release)
Видео
Идентификатор : 0
Формат : xvid
Идентификатор кодека : xvid
Продолжительность : 2 ч. 16 м.
Битрейт : 1400 Кбит/сек
Ширина : 720 пикселей
Высота : 304 пикселя
Соотношение сторон : 2,35:1
Частота кадров : 23,976 кадра/сек
Бит/(Пиксели*Кадры) : 0.267
Размер потока : 1,33 Гбайт (75%)
Аудио
Идентификатор : 1
Формат : AC-3
Формат/Информация : Audio Coding 3
Расширение режима : CM (complete main)
Параметр Endianness формата : Big
Идентификатор кодека : 2000
Продолжительность : 2 ч. 16 м.
Вид битрейта : Постоянный
Битрейт : 448 Кбит/сек
Каналы : 6 каналов
Расположение каналов : Front: L C R, Side: L R, LFE
Частота : 48,0 КГц
Частота кадров : 31,250 кадров/сек (1536 spf)
Метод сжатия : С потерями
Размер потока : 436 Мбайт (24%)
Выравнивание : Разделение по промежуткам
Продолжительность промежутка : 42 мс. (1,00 видеокадр)
Время предзагрузки промежутка : 500 мс.
Download / Скачать

Хотите скачать бесплатно? Зарегистрируйтесь на сайте (ссылка на регистрацию). Pirat.ca - самый быстрый торрент трекер в рунете!

Как скачивать  ·   Что такое торрент  ·   Рейтинг и ограничения

rsel

Морской Волк

Пост 30-Июл-2016 21:32 (спустя 18 часов)

[Q] 

Предлагаю в меню выбора добавить категорию "Индийское кино", что бы лишний раз глаза не мозолила это блевовуд ТВ
[Профиль]  [ЛС] 

s_s

Гроза морей

Пост 07-Авг-2016 03:08 (спустя 7 дней)

[Q] 

Действительно, что-то часто стало появляться. Почему, зачем..

_________________
в себе самом добра со злом
[Профиль]  [ЛС] 

Пост 18-Сен-2016 13:53 (спустя 1 месяц 11 дней)

Топик был перенесен из форума Новинки (BD/HDTV/DVD) в форум Индийское кино
aleksey99
 

Су-34

Легенда

15931

Пост 12-Ноя-2018 17:34 (спустя 2 года 3 месяца)

[Q] 

тре из простоквашено, по этой теме??
[Профиль]  [ЛС] 
Показать сообщения:    
Ответить на тему

Текущее время: Сегодня 01:39

Часовой пояс: GMT + 4



Вы не можете начинать темы
Вы не можете отвечать на сообщения
Вы не можете редактировать свои сообщения
Вы не можете удалять свои сообщения
Вы не можете голосовать в опросах
Вы не можете прикреплять файлы к сообщениям
Вы не можете скачивать файлы

Майнать ▼