Призраки дома на холме / The Haunting of Hill House / Сезон: 1 / Серии: 1-10 из 10 (Майк Флэнеган / Mike Flanagan) [2018 г., мистика, ужасы, WEB-DLRip, 1080p] MVO (IdeaFilm)

Ответить на тему
 
Автор
Сообщение

Пост 07-Ноя-2018 16:46

[Q] 

tank69

Флибустьер

-Призраки дома на холме / The Haunting of Hill House-- Производство: США, NetFlix
Жанр: мистика, ужасы
Год выпуска: 2018 г.
Продолжительность: 00:60:00
Мировая премьера: 12 октября 2018
Перевод: Профессиональный (многоголосый, закадровый) [IdeaFilm]
Режиссёр: Майк Флэнеган / Mike Flanagan-В ролях: Маккенна Грэйс, Карла Гуджино, Михил Хаушман, Тимоти Хаттон, Элизабет Ризер, Оливер Джексон-Коэн, Генри Томас, Лулу Уилсон, Кейт Сигел, Катрин Паркер, Джордана Кристи, Джеймс Лэфферти, Энтони Руйвивар, Анна Энгер, Тенайа Кливленд, Аннабет Гиш-Описание: История семьи, которая долгое время жила в доме, населённом призраками. Годы спустя трагедия заставляет их вернуться в тот дом и встретиться лицом к лицу со злом, обитающим в его стенах.-
Качество видео: WEB-DLRip
Контейнер: MKV
Стандарт разрешения: 1080p
Видео кодек: MPEG4 AVC
Аудио кодек: AC3
Видео: AVC, 1912x960, 23.976 fps, 6804 Kbps
Аудио: Rus: AC-3, 48.0 KHz, 6 ch, 384 Kbps
Аудио: Eng: AC-3, 48.0 KHz, 6 ch, 640 Kbps
Cубтитры: отсутствуют
Общее
Уникальный идентификатор : 220064685228243760576775610501196966903 (0xA58EEAACBDC3E50E7A4D492576E86BF7)
Полное имя : F:\Сериалы 2014 - 2018\Сериалы по С.Кингу\The.Haunting.of.Hill.House.S01.WEB-DLRip.1080p\The.Haunting.of.Hill.House.S01E01.WEB-DLRip.1080p.IdeaFilm.mkv
Формат : Matroska
Версия формата : Version 4 / Version 2
Размер файла : 3,29 Гбайт
Продолжительность : 1 ч. 0 м.
Общий поток : 7824 Кбит/сек
Дата кодирования : UTC 2018-10-13 20:59:16
Программа кодирования : mkvmerge v27.0.0 ('Metropolis') 64-bit
Библиотека кодирования : libebml v1.3.6 + libmatroska v1.4.9
Видео
Идентификатор : 1
Формат : AVC
Формат/Информация : Advanced Video Codec
Профиль формата : [email protected]
Настройки формата : CABAC / 4 Ref Frames
Параметр CABAC формата : Да
Параметр RefFrames формата : 4 кадра
Идентификатор кодека : V_MPEG4/ISO/AVC
Продолжительность : 1 ч. 0 м.
Битрейт : 6804 Кбит/сек
Ширина : 1920 пикселей
Высота : 960 пикселей
Соотношение сторон : 2,000
Режим частоты кадров : Постоянный
Частота кадров : 23,976 (24000/1001) кадра/сек
Стандарт вещания : NTSC
Цветовое пространство : YUV
Субдискретизация насыщенности : 4:2:0
Битовая глубина : 8 бит
Тип развёртки : Прогрессивная
Бит/(Пиксели*Кадры) : 0.154
Размер потока : 2,86 Гбайт (87%)
Язык : English
Default : Да
Forced : Нет
Цветовой диапазон : Limited
Основные цвета : BT.709
Характеристики трансфера : BT.709
Коэффициенты матрицы : BT.709
Аудио #1
Идентификатор : 2
Формат : AC-3
Формат/Информация : Audio Coding 3
Идентификатор кодека : A_AC3
Продолжительность : 1 ч. 0 м.
Вид битрейта : Постоянный
Битрейт : 384 Кбит/сек
Каналы : 6 каналов
Расположение каналов : Front: L C R, Side: L R, LFE
Частота : 48,0 КГц
Частота кадров : 31,250 кадров/сек (1536 SPF)
Битовая глубина : 16 бит
Метод сжатия : С потерями
Размер потока : 166 Мбайт (5%)
Заголовок : IDEAFILM
Язык : Russian
ServiceKind/String : Complete Main
Default : Да
Forced : Нет
Аудио #2
Идентификатор : 3
Формат : AC-3
Формат/Информация : Audio Coding 3
Идентификатор кодека : A_AC3
Продолжительность : 59 м. 36 с.
Битрейт : 640 Кбит/сек
Каналы : 6 каналов
Частота : 48,0 КГц
Частота кадров : 31,250 кадров/сек (1536 SPF)
Метод сжатия : С потерями
Размер потока : 273 Мбайт (8%)
Язык : English
Default : Нет
Forced : Нет
ПРИСУТСТВУЮТ РЕКЛАМНЫЕ ВСТАВКИ
Download / Скачать

Хотите скачать бесплатно? Зарегистрируйтесь на сайте (ссылка на регистрацию). Pirat.ca - самый быстрый торрент трекер в рунете!

Как скачивать  ·   Что такое торрент  ·   Рейтинг и ограничения

tank69 ®

Флибустьер

1663

Пост 07-Ноя-2018 23:16 (спустя 6 часов)

[Q] 

Сериал - просто бомба!
Любителям мистики и ужасов - однозначно к просмотру и в коллекцию)
[Профиль]  [ЛС] 

-alloy-

Штурман

Пост 09-Ноя-2018 21:48 (спустя 1 день 22 часа)

[Q] 

Сериал хороший , затянуто немного, но в целом !COOL! Автору респект!!!

_________________
[Профиль]  [ЛС] 

SwordFish

Корсар

1656

Пост 11-Ноя-2018 21:10 (спустя 1 день 23 часа)

[Q] 

Замудреный затянутый сериал. Последние серии уже просто проматывал.
[Профиль]  [ЛС] 

jofrei53

Флибустьер

Пост 12-Ноя-2018 22:42 (спустя 1 день 1 час)

[Q] 

Спасибо за релиз! Заинтересовало, посмотрим... Автору респект!!! Лови бочку
[Профиль]  [ЛС] 
Показать сообщения:    
Ответить на тему

Текущее время: Сегодня 04:39

Часовой пояс: GMT + 4



Вы не можете начинать темы
Вы не можете отвечать на сообщения
Вы не можете редактировать свои сообщения
Вы не можете удалять свои сообщения
Вы не можете голосовать в опросах
Вы не можете прикреплять файлы к сообщениям
Вы не можете скачивать файлы

Майнать ▼