Эш против Зловещих мертвецов / Ash vs Evil Dead / Сезон 3 / Серии 1-10 из 10 (Марк Бисли / Tony Tilse) [2018, США, ужасы, фэнтези, боевик, комедия, WEBRip] MVO (AlexFilm, Baibako) + Original (Eng)

Ответить на тему
 
Автор
Сообщение

Пост 20-Мар-2018 14:25

[Q] 

kugesan

Эш против Зловещих мертвецов
Ash vs Evil Dead

«Пора испытать его на прочность»
- Страна: США
Год выпуска: 2018
Жанр: ужасы, фэнтези, боевик, комедия
Продолжительность: ~ 00:46:00 серия-Перевод:
- Профессиональный (многоголосый закадровый) |AlexFilm|
- Любительский (многоголосый закадровый) |Baibako|-Премьера (мир): 31 октября 2015, ...
Премьера (РФ): 31 октября 2015-Режиссер: Марк Бисли / Tony Tilse, Рик Джейкобсон / Tony Tilse, Тони Тилс / Tony Tilse
В главных ролях: Брюс Кэмпбелл, Джилл Мари Джонс, Дэна ДеЛоренцо, Люси Лоулесс, Рэй Сантьяго, Мими Роджерс, Хемки Мадера, Фил Пелетон, Ido Drent, Дэмиен Гарви и др.-Описание фильма:
Последние тридцать лет Эш старательно избегал всего, что связано с воспоминаниями о зловещих мертвецах, но когда очередное нашествие дедайтов грозит уничтожить все все население планеты, Эш становится единственным шансом человечества на спасение.-Качество видео: WEBRip
Формат: AVI
Видео: Xvid, 720x400 (16:9), ~2000 kbps, 23.976 fps, 0.29 Bits/Pixel
Аудио Rus: AC-3 , 48,0 КГц, 6 ch, 384 kbps |AlexFilm|
Аудио Rus: AC-3 , 48,0 КГц, 6 ch, 384 kbps |Baibako|
Аудио Eng: AC-3 , 48,0 КГц, 6 ch, 384 kbps |Original|
Субтитры: английские
Реклама: отсутствует
--
  • Семья
  • Третья кабинка
  • Очевидная смерть
  • Не законченное дело
  • Защита от детей
  • Байки из трещины
  • Вертись-крутись
  • Вперёд в трещину
  • Судный день
  • Испытание на прочность
-
Общее
Полное имя : E:\_Сериалы\_Сериалы\Эш против\Ash.vs.Evil.Dead.S03.WEBRip.Rus.Eng\Ash.vs.Evil.Dead.S03E01.WEBRip.Rus.Eng.avi
Формат : AVI
Формат/Информация : Audio Video Interleave
Размер файла : 625 Мбайт
Продолжительность : 27 м. 32 с.
Общий поток : 3173 Кбит/сек
Программа кодирования : VirtualDubMod 1.5.10.3 | www.virtualdub-fr.org || (build 2550/release)
Библиотека кодирования : VirtualDubMod build 2550/release
Видео
Идентификатор : 0
Формат : MPEG-4 Visual
Профиль формата : Advanced [email protected]
Настройки формата : BVOP1
Параметр BVOP формата : 1
Параметр QPel формата : Нет
Параметр GMC формата : Без точки перехода
Параметр матрицы формата : Default (MPEG)
Идентификатор кодека : XVID
Идентификатор кодека/Подсказка : XviD
Продолжительность : 27 м. 32 с.
Битрейт : 2002 Кбит/сек
Ширина : 720 пикселей
Высота : 400 пикселей
Соотношение сторон : 16:9
Частота кадров : 23,976 (24000/1001) кадра/сек
Цветовое пространство : YUV
Субдискретизация насыщенности : 4:2:0
Битовая глубина : 8 бит
Тип развёртки : Прогрессивная
Метод сжатия : С потерями
Бит/(Пиксели*Кадры) : 0.290
Размер потока : 394 Мбайт (63%)
Библиотека кодирования : XviD 1.2.1 (UTC 2008-12-04)
Аудио #1
Идентификатор : 1
Формат : AC-3
Формат/Информация : Audio Coding 3
Идентификатор кодека : 2000
Продолжительность : 27 м. 32 с.
Вид битрейта : Постоянный
Битрейт : 384 Кбит/сек
Каналы : 6 каналов
Расположение каналов : Front: L C R, Side: L R, LFE
Частота : 48,0 КГц
Частота кадров : 31,250 кадров/сек (1536 SPF)
Битовая глубина : 16 бит
Метод сжатия : С потерями
Размер потока : 75,6 Мбайт (12%)
Выравнивание : Разделение по промежуткам
Продолжительность промежутка : 42 мс. (1,00 видеокадр)
Время предзагрузки промежутка : 500 мс.
ServiceKind/String : Complete Main
Аудио #2
Идентификатор : 2
Формат : AC-3
Формат/Информация : Audio Coding 3
Идентификатор кодека : 2000
Продолжительность : 27 м. 32 с.
Вид битрейта : Постоянный
Битрейт : 384 Кбит/сек
Каналы : 6 каналов
Расположение каналов : Front: L C R, Side: L R, LFE
Частота : 48,0 КГц
Частота кадров : 31,250 кадров/сек (1536 SPF)
Битовая глубина : 16 бит
Метод сжатия : С потерями
Размер потока : 75,6 Мбайт (12%)
Выравнивание : Разделение по промежуткам
Продолжительность промежутка : 42 мс. (1,00 видеокадр)
Время предзагрузки промежутка : 500 мс.
ServiceKind/String : Complete Main
Аудио #3
Идентификатор : 3
Формат : AC-3
Формат/Информация : Audio Coding 3
Идентификатор кодека : 2000
Продолжительность : 27 м. 32 с.
Вид битрейта : Постоянный
Битрейт : 384 Кбит/сек
Каналы : 6 каналов
Расположение каналов : Front: L C R, Side: L R, LFE
Частота : 48,0 КГц
Частота кадров : 31,250 кадров/сек (1536 SPF)
Битовая глубина : 16 бит
Метод сжатия : С потерями
Размер потока : 75,6 Мбайт (12%)
Выравнивание : Разделение по промежуткам
Продолжительность промежутка : 42 мс. (1,00 видеокадр)
Время предзагрузки промежутка : 500 мс.
ServiceKind/String : Complete Main
-
-
Раздача ведётся путём добавления новых серий; при каждом добавлении создаётся новый торрент.
Чтобы начать докачку новой серии, пользователям необходимо сделать следующее:
1. остановить скачивание,
2. удалить старый торрент у себя из клиента (старые серии удалять не надо),
3. скачать новый торрент и запустить его у себя в клиенте вместо старого, при этом указать клиенту путь в старую папку, куда и должно происходить скачивание новых серий.
Ваш клиент при этом должен произвести хеширование (проверку) старой папки (если не производит сам - помогите ему сделать это), и будет докачивать только те серии которых у вас ещё нет. Старые серии при этом не удаляются, а продолжают раздаваться!
Eсли вы уже удалили старые серии, то предотвратить повторную закачку старых серий можно, отжав галочку в соответствующих местах при запуске нового торрента. По возможности, желательно не удалять старые серии как можно дольше, чтобы релизёр не столько продолжал раздавать старые серии, а смог сконцентрироваться на новых.
Совет для тех, кто не хочет ждать перехеширования:
Создайте ещё одну папку рядом с папкой сериала (рядом, а не в ней!!!). Каждую новую серию после удачной загрузки копируйте в новую папку так чтобы ваша основная папка всегда была пуста. Когда ваш новый торрент предложит вам закачать все файлы, выберете только последнюю. Для сидирования же укажите адрес новой папки.
Как закачать отдельный файл из торрента или докачать ранее пропущенные файлы торрента!
-
1. Открыть торрент
2. Снять галки с тех файлов торрента, которые мы не хотим закачивать. Оставляем только на нужных нам файлах (файле).
3. Нажать О.К.
В клиенте utorrent
Инструкция
1) Открыть торрент

2) Снять галки с тех файлов торрента, которые мы не хотим закачивать:
* либо вручную, снимая с каждого файла галку( скрин №1)
* либо, нажав кнопку "Снять метки (Select None)", сняв сразу со всех файлов(скрин №2)
№1

№2

Оставляем только на нужных нам файлах (файле).

3)Нажать О.К
-Приятного просмотра!!!
Download / Скачать

Хотите скачать бесплатно? Зарегистрируйтесь на сайте (ссылка на регистрацию). Pirat.ca - самый быстрый торрент трекер в рунете!

Как скачивать  ·   Что такое торрент  ·   Рейтинг и ограничения



Последний раз редактировалось: kugesan (2018-05-08 12:09), всего редактировалось 2 раз(а)

Амангельды

38282

Пост 20-Мар-2018 17:15 (спустя 2 часа 50 минут)

[Q] 

Однако сценаристы молодцы - думал, закончат на предыдущем сезоне...
Что показалось печальным, ибо помню прекрасно просмотры трилогии в 80-е...
Вот только тогда смешно не было, а хотелось по-тихому отойти в угол и скинуть кал...
Релизеру особая благодарственность за очередное продолжение.
На самом деле даже сериал оченно ничего.
Вот только все одно, начать просмотр нужно с фильмов "Зловещие мертвецы" 1, 2, 3...
Ибо будет понятнее...
Супер!

_________________

Товарищ, верь, пройдет она,
Так называемая гласность.
И вот тогда госбезопасность
Припомнит ваши имена
[Профиль]  [ЛС] 

tank69

Флибустьер

1712

Пост 20-Мар-2018 18:56 (спустя 1 час 41 минута)

[Q] 

Зубодробильно и с хорошим юмором, всем фанатам франшизы "Зловещие мертвецы" (кроме последней части) будет по душе!
Автору - респект! Спасибо!!!
Супер!
[Профиль]  [ЛС] 

SeaSide

Штурман

Пост 20-Мар-2018 21:23 (спустя 2 часа 26 минут)

[Q] 

Да и фанатам последней, таким как я, тоже будет ничего )
[Профиль]  [ЛС] 

redfield

Корсар

Пост 07-Май-2018 22:33 (спустя 1 месяц 18 дней)

[Q] 

А что дальше то перестали выкладывать?
[Профиль]  [ЛС] 

Wrack

Штурман

Пост 27-Май-2018 19:10 (спустя 19 дней)

[Q] 

Жаль сериал закрыт после 3 сезона.
[Профиль]  [ЛС] 

Амангельды

38282

Пост 18-Ноя-2018 16:40 (спустя 5 месяцев 21 день)

[Q] 

826502Жаль сериал закрыт после 3 сезона.
Жанр не пошел...
Но хоть попытались возродить...
Мне понравилось

_________________

Товарищ, верь, пройдет она,
Так называемая гласность.
И вот тогда госбезопасность
Припомнит ваши имена
[Профиль]  [ЛС] 
Показать сообщения:    
Ответить на тему

Текущее время: Сегодня 09:40

Часовой пояс: GMT + 4



Вы не можете начинать темы
Вы не можете отвечать на сообщения
Вы не можете редактировать свои сообщения
Вы не можете удалять свои сообщения
Вы не можете голосовать в опросах
Вы не можете прикреплять файлы к сообщениям
Вы не можете скачивать файлы

Майнать ▼