[Jolly Roger] Солт / Salt (Филлип Нойс / Phillip Noyce) [2010 г., боевик, триллер, криминал, детектив, BDRip] Dub (Theatrical Version)

Ответить на тему
 
Автор
Сообщение

Пост 10-Фев-2013 11:58

[Q] 

ara1205

-Солт / Salt(Theatrical Version)-- Год выпуска: 2010 г.
Производство: США
Жанр: боевик, триллер, криминал, детектив
Продолжительность: 01:39:59
Перевод: Профессиональный (полное дублирование)-Режиссер: Филлип Нойс / Phillip Noyce-В ролях: Анджелина Джоли, Лив Шрайбер, Чиветел Эджиофор, Даниэль Ольбрыхский, Аугуст Диль, Дэниэл Пирс, Хант Блок, Андре Брогер, Олек Крупа, Кэссиди Хинкль, Кори Столл, Ольга Зуева, Кевин О’Доннелл, Гай Чарльз, Зэк Шаффер, Альберт Джонс, Зои Листер Джонс, Пол Джун, Тика Самптер-Описание: Эвелин Солт — сотрудница ЦРУ. Ей чудом удаётся избежать тюрьмы: собственное агентство выдвигает против неё необоснованные обвинения в том, что она работает на русскую разведку. Теперь Солт необходимо восстановить своё доброе имя.-- --Качество видео: BDRip
Контейнер: AVI
Видео кодек: XviD
Аудио кодек: AC3
Видео: 720x304, 23,976 fps, 1690 kbps avg, 0.322 bit/pixel
Аудио: 48 kHz, AC3 Dolby Digital, 3/2 (L,C,R,l,r) + LFE ch, ~384 kbps-
Общее
Полное имя : C:\Users\Ромик\Documents\[R.G. Jolly Roger]\Солт\Salt.2010.BDRip.JRG.avi
Формат : AVI
Формат/Информация : Audio Video Interleave
Размер файла : 1,45 Гбайт
Продолжительность : 1 ч. 40 м.
Общий поток : 2083 Кбит/сек
Название фильма : Salt.2010.BDRip.JRG.[pirat.ca]
Программа кодирования : VirtualDubMod 1.5.10.2 (build 2540/release)
Правообладатель : R.G. Jolly Roger
Видео
Идентификатор : 0
Формат : MPEG-4 Visual
Профиль формата : Advanced [email protected]
Параметр BVOP формата : 2
Параметр QPel формата : Нет
Параметр GMC формата : Без точки перехода
Параметр матрицы формата : Default (MPEG)
Идентификатор кодека : XVID
Идентификатор кодека/Подсказка : XviD
Продолжительность : 1 ч. 39 м.
Битрейт : 1690 Кбит/сек
Ширина : 720 пикселей
Высота : 304 пикселя
Соотношение сторон : 2,35:1
Частота кадров : 23,976 кадра/сек
Цветовое пространство : YUV
Субдискретизация насыщенности : 4:2:0
Битовая глубина : 8 бит
Тип развёртки : Прогрессивная
Метод сжатия : С потерями
Бит/(Пиксели*Кадры) : 0.322
Размер потока : 1,18 Гбайт (81%)
Библиотека кодирования : XviD 1.2.0.dev47 (UTC 2006-11-01)
Аудио
Идентификатор : 1
Формат : AC-3
Формат/Информация : Audio Coding 3
Расширение режима : CM (complete main)
Параметр Endianness формата : Big
Идентификатор кодека : 2000
Продолжительность : 1 ч. 40 м.
Вид битрейта : Постоянный
Битрейт : 384 Кбит/сек
Каналы : 6 каналов
Расположение каналов : Front: L C R, Side: L R, LFE
Частота : 48,0 КГц
Битовая глубина : 16 бит
Метод сжатия : С потерями
Размер потока : 275 Мбайт (18%)
Выравнивание : Разделение по промежуткам
Продолжительность промежутка : 42 мс. (1,00 видеокадр)
Время предзагрузки промежутка : 500 мс.
-
- --
Download / Скачать

Хотите скачать бесплатно? Зарегистрируйтесь на сайте (ссылка на регистрацию). Pirat.ca - самый быстрый торрент трекер в рунете!

Как скачивать  ·   Что такое торрент  ·   Рейтинг и ограничения

Gemornax

Морской Волк

Пост 10-Фев-2013 12:23 (спустя 24 минуты)

[Q] 

Фильм не очень(
[Профиль]  [ЛС] 

AGKRus36

38020

Пост 10-Фев-2013 13:00 (спустя 36 минут)

[Q] 

Мне понравился, Анджелина Джоли зажигает

_________________
Мои раздачи
[Профиль]  [ЛС] 

dronofill

Корсар

Пост 28-Мар-2013 19:34 (спустя 1 месяц 18 дней)

[Q] 

Спасибо!

_________________
Мира и добра)
[Профиль]  [ЛС] 

Прораб

Легенда

Пост 16-Апр-2013 21:06 (спустя 19 дней)

[Q] 

Спасибо!
[Профиль]  [ЛС] 

volkodav-10

Корсар

Пост 18-Апр-2013 10:42 (спустя 1 день 13 часов)

[Q] 


_________________
Каждому своё.
[Профиль]  [ЛС] 

vovapowers

Корсар

Пост 20-Апр-2013 12:35 (спустя 2 дня 1 час)

[Q] 

что-то подобное кажется было
[Профиль]  [ЛС] 

BayunCat

Корсар

Пост 27-Июн-2013 09:50 (спустя 2 месяца 6 дней)

[Q] 


_________________
FrEeBoOt
Пиратка рулит!
[Профиль]  [ЛС] 

makar8182

Корсар

Пост 16-Июл-2013 14:03 (спустя 19 дней)

[Q] 

[Профиль]  [ЛС] 

CHARLI2236

1244

Пост 26-Июл-2013 14:39 (спустя 10 дней)

[Q] 

15

_________________
[Профиль]  [ЛС] 

mrdim-CHEHOV

Флибустьер

Пост 26-Авг-2013 21:11 (спустя 1 месяц)

[Q] 

Автору респект!!!

_________________
Все будет не так, как мы решим. Все будет тогда, когда мы решимся.
[Профиль]  [ЛС] 

Тошик

Морской Волк

Пост 01-Янв-2014 19:14 (спустя 4 месяца 5 дней)

[Q] 

Спасибо Супер!
[Профиль]  [ЛС] 

AlexMVA

Шкипер

Пост 08-Янв-2014 04:42 (спустя 6 дней)

[Q] 

На любителя
[Профиль]  [ЛС] 

Master Chief

Корсар

585

Пост 14-Сен-2014 21:39 (спустя 8 месяцев 6 дней)

[Q] 

Гляну ка ещё разок. Мне понравилось Лови бочку
[Профиль]  [ЛС] 

maksssi

Корсар

Пост 12-Июн-2015 18:14 (спустя 8 месяцев 27 дней)

[Q] 

Ну так себе, Джоли рулит
[Профиль]  [ЛС] 

a s d

Корсар

1

Пост 19-Ноя-2018 04:24 (спустя 3 года 5 месяцев)

[Q] 

Автору респект!!! !!! Спасибо!!!
[Профиль]  [ЛС] 
Показать сообщения:    
Ответить на тему

Текущее время: Сегодня 21:54

Часовой пояс: GMT + 4



Вы не можете начинать темы
Вы не можете отвечать на сообщения
Вы не можете редактировать свои сообщения
Вы не можете удалять свои сообщения
Вы не можете голосовать в опросах
Вы не можете прикреплять файлы к сообщениям
Вы не можете скачивать файлы

Майнать ▼