Очень плохие девчонки / Rough Night (Люсия Аньелло / Lucia Aniello) [2017 г., комедия, BDRip] Dub [iTunes]

Ответить на тему
 
Автор
Сообщение

Пост 28-Авг-2017 10:23

[Q] 

ara1205

-Очень плохие девчонки / Rough Night-- Производство: США
Год выпуска: 2017 г.
Жанр: комедия
Продолжительность: 01:40:50
Мировая премьера: 15 июня 2017
Российская премьера: 15 июня 2017
Перевод: Профессиональный (полное дублирование) [iTunes]-Режиссёр: Люсия Аньелло / Lucia Aniello-В ролях: Скарлетт Йоханссон, Джиллиан Белл, Зои Кравиц, Илана Глейзер, Кейт МакКиннон, Пол В. Даунс, Райан Купер, Тай Буррелл, Деми Мур, Энрике Мурсиано-Описание: Что может омрачить развеселый и безбашенный девичник в Майами? Наверное, только нелепая смерть стриптизера. Теперь подружкам предстоит выпутаться из дурацкой истории и как-то замести следы, пока они не попали в руки к копам.- -Качество видео: BDRip
Контейнер: AVI
Видео кодек: XviD
Аудио кодек: AC3
Видео: 720х304, 23,976 fps, 1617 Kbps, 0.308 bits/pixel
Аудио: 48 kHz, AC3 Dolby Digital, 6 ch, ~384 kbps
Cубтитры: отсутствуют-
C:\Users\Admin\Videos\Очень плохие девчонки\Ochen.Plohie.Devchonki.2017.BDRip.[pirat.ca].avi
General
Complete name : C:\Users\Admin\Videos\Очень плохие девчонки\Ochen.Plohie.Devchonki.2017.BDRip.[pirat.ca].avi
Format : AVI
Format/Info : Audio Video Interleave
File size : 1.42 GiB
Duration : 1 h 40 min
Overall bit rate : 2 010 kb/s
Writing application : VirtualDubMod 1.5.10.2 (build 2540/release)
Writing library : VirtualDubMod build 2540/release
Video #0
ID : 0
Format : MPEG-4 Visual
Format profile : Advanced [email protected]
Format settings, BVOP : 1
Format settings, QPel : No
Format settings, GMC : No warppoints
Format settings, Matrix : Custom
Codec ID : XVID
Codec ID/Hint : XviD
Duration : 1 h 40 min
Bit rate : 1 617 kb/s
Width : 720 pixels
Height : 304 pixels
Display aspect ratio : 2.35:1
Frame rate : 23.976 (24000/1001) FPS
Color space : YUV
Chroma subsampling : 4:2:0
Bit depth : 8 bits
Scan type : Progressive
Compression mode : Lossy
Bits/(Pixel*Frame) : 0.308
Stream size : 1.14 GiB (80%)
Writing library : XviD 73
Audio #1
ID : 1
Format : AC-3
Format/Info : Audio Coding 3
Mode extension : CM (complete main)
Format settings, Endianness : Big
Codec ID : 2000
Duration : 1 h 40 min
Bit rate mode : Constant
Bit rate : 384 kb/s
Channel(s) : 6 channels
Channel positions : Front: L C R, Side: L R, LFE
Sampling rate : 48.0 kHz
Frame rate : 31.250 FPS (1536 spf)
Compression mode : Lossy
Stream size : 277 MiB (19%)
Alignment : Split accross interleaves
Interleave, duration : 42 ms (1.00 video frame)
Interleave, preload duration : 500 ms
-
-
Download / Скачать

Хотите скачать бесплатно? Зарегистрируйтесь на сайте (ссылка на регистрацию). Pirat.ca - самый быстрый торрент трекер в рунете!

Как скачивать  ·   Что такое торрент  ·   Рейтинг и ограничения

bull271174New

Штурман

Пост 28-Авг-2017 19:03 (спустя 8 часов)

[Q] 

Забираю, отпишусь.
[Профиль]  [ЛС] 

petrs_2000

Лоцман

Пост 28-Авг-2017 22:30 (спустя 3 часа)

[Q] 

ДрочиНожка bm это ж надо было такое слово придумать. фильм на разок.
[Профиль]  [ЛС] 

tva018

Лоцман

Пост 01-Сен-2017 00:02 (спустя 3 дня)

[Q] 

это треш просто !!!!!
[Профиль]  [ЛС] 

a s d

Корсар

1

Пост 21-Сен-2017 13:28 (спустя 20 дней)

[Q] 

Спасибо!!! Автору респект!!! !!!!
[Профиль]  [ЛС] 

ninette

Шкипер

Пост 22-Сен-2017 09:16 (спустя 19 часов)

[Q] 

Спасибо!!! Раздающему респект!
[Профиль]  [ЛС] 

ketzer

Корсар

Пост 23-Сен-2017 02:12 (спустя 16 часов)

[Q] 

Ну да, юморок так себе, но не хуже остальных точно таких же комедий о том, как компания едет куда-то отрываться и встревает в блудняки.
[Профиль]  [ЛС] 

windj

Корсар

73

Пост 23-Сен-2017 23:03 (спустя 20 часов)

[Q] 

Уровень камеди клаб... говно, короче.

_________________
[Профиль]  [ЛС] 

grosboy

Гроза морей

Пост 30-Сен-2017 10:52 (спустя 6 дней)

[Q] 

Таких комедий наснимали немерено. Вот только юмор не наш не славянский. А до европейского или американского ещё не доросли... Короче на любителя таких шедевров.

_________________
Щастье есть - его не может не быть...
[Профиль]  [ЛС] 

ketzer

Корсар

Пост 01-Окт-2017 01:40 (спустя 14 часов)

[Q] 

806937Таких комедий наснимали немерено. Вот только юмор не наш не славянский. А до европейского или американского ещё не доросли... Короче на любителя таких шедевров.
Пардон, но это же не российский фильм, а американский. Юмор, понятно, американский, а не славянский.
[Профиль]  [ЛС] 

nikromonger

Корсар

Пост 06-Окт-2017 19:29 (спустя 5 дней)

[Q] 

Эх Скарлетт Йоханссон завязывай с комедиями это не твое ag
[Профиль]  [ЛС] 

pacco

Корсар

Пост 17-Окт-2017 18:54 (спустя 10 дней)

[Q] 

не понравился фильм
[Профиль]  [ЛС] 

Пост 05-Ноя-2017 00:27 (спустя 18 дней)

Топик был перенесен из форума Новинки (HD|DVD|BD| TV|SAT|PDTV| - Rips) в форум Фильмы 2010 - 2017 г.г.
ara1205
 

lexaspirit

Пост 19-Ноя-2018 17:32 (спустя 1 год 1 месяц)

[Q] 

Очень много ненормативной лексики. Для меня смотреть невозможно

_________________
-------------------- ----------------------
[Профиль]  [ЛС] 
Показать сообщения:    
Ответить на тему

Текущее время: Сегодня 22:24

Часовой пояс: GMT + 4



Вы не можете начинать темы
Вы не можете отвечать на сообщения
Вы не можете редактировать свои сообщения
Вы не можете удалять свои сообщения
Вы не можете голосовать в опросах
Вы не можете прикреплять файлы к сообщениям
Вы не можете скачивать файлы

Майнать ▼