Секса не будет!!! / Blockers (Кэй Кэннон / Kay Cannon) [2018 г., Комедия, BDRip, 1080p] Dub [Лицензия]

Ответить на тему
 
Автор
Сообщение

Пост 23-Июл-2018 08:52

[Q] 

AlexDjas

Гроза морей

--Секса не будет!!! / Blockers«Родители умеют обламывать, как никто другой»-- Производство: США
Год выпуска: 2018 г.
Жанр: Комедия
Продолжительность: 01:41:56
Мировая премьера: 10 марта 2018
Российская премьера: 24 мая 2018, «UPI»
Дата выхода DVD: 23 июля 2018, «НД Плэй»
Дата выхода Blu-Ray: 23 июля 2018, «НД Плэй»
Перевод: Профессиональный (полное дублирование) [Лицензия]
Режиссёр: Кэй Кэннон / Kay Cannon--В ролях: Лесли Манн, Айк Баринхолц, Джон Сина, Кэтрин Ньютон, Джина Гершон, Джун Рафаэль, Сарайю Рао, Гэри Коул, Грэм Филлипс, Хэннибал Бёресс--Описание: У трех подруг грандиозные планы на выпускной. Случайно об этом узнав, их родители решают во что бы то ни стало предотвратить непоправимое.-- Качество видео: BDRip
Контейнер: MKV
Стандарт разрешения: 1080p
Видео кодек: MPEG4 AVC
Аудио кодек: AC3
Видео: H.264/AVC, 1920x804, ~11600 Kbps, 23,976 fps
Аудио: 48 kHz, AC3 Dolby Digital, 3/2 (L,C,R,l,r) + LFE ch, ~384 kbps
Cубтитры: отсутствуют
Общее
Уникальный идентификатор : 40536564920234532137029722665986270365 (0x1E7F0EF4C2AB2C790760498E96E7A49D)
Полное имя : D:\Фильмы\Blockers_2018_BDRip_1080p[pirat.ca].mkv
Формат : Matroska
Версия формата : Version 4 / Version 2
Размер файла : 8,50 Гбайт
Продолжительность : 1 ч. 41 м.
Общий поток : 11,9 Мбит/сек
Название фильма : Blockers_2018
Дата кодирования : UTC 2018-07-23 03:47:44
Программа кодирования : mkvmerge v25.0.0 ('Prog Noir') 64-bit
Библиотека кодирования : libebml v1.3.6 + libmatroska v1.4.9
Видео
Идентификатор : 1
Формат : AVC
Формат/Информация : Advanced Video Codec
Профиль формата : [email protected]
Настройки формата : CABAC / 5 Ref Frames
Параметр CABAC формата : Да
Параметр RefFrames формата : 5 кадров
Идентификатор кодека : V_MPEG4/ISO/AVC
Продолжительность : 1 ч. 41 м.
Битрейт : 11,6 Мбит/сек
Ширина : 1920 пикселей
Высота : 804 пикселя
Соотношение сторон : 2,40:1
Режим частоты кадров : Постоянный
Частота кадров : 23,976 (24000/1001) кадра/сек
Частота кадров в оригинале : 47,952 (48000/1001) кадров/сек
Цветовое пространство : YUV
Субдискретизация насыщенности : 4:2:0
Битовая глубина : 8 бит
Тип развёртки : Прогрессивная
Бит/(Пиксели*Кадры) : 0.312
Размер потока : 8,23 Гбайт (97%)
Заголовок : Blockers_2018
Библиотека кодирования : x264 core 142 r2431+42 c69a006 tMod [[email protected]:2:0 X86_64]
Настройки программы : cabac=1 / ref=5 / deblock=1:-3:-3 / analyse=0x3:0x113 / me=umh / subme=10 / psy=1 / fade_compensate=0.00 / psy_rd=1.00:0.05 / mixed_ref=1 / me_range=48 / chroma_me=1 / trellis=2 / 8x8dct=1 / cqm=0 / deadzone=21,11 / fast_pskip=0 / chroma_qp_offset=-2 / threads=48 / lookahead_threads=6 / sliced_threads=0 / nr=0 / decimate=1 / interlaced=0 / bluray_compat=0 / constrained_intra=0 / fgo=0 / bframes=8 / b_pyramid=2 / b_adapt=2 / b_bias=0 / direct=3 / weightb=1 / open_gop=0 / weightp=2 / keyint=250 / keyint_min=23 / scenecut=40 / intra_refresh=0 / rc_lookahead=40 / rc=crf / mbtree=0 / crf=17.3000 / qcomp=0.60 / qpmin=0:0:0 / qpmax=69:69:69 / qpstep=4 / vbv_maxrate=40000 / vbv_bufsize=30000 / crf_max=0.0 / nal_hrd=none / filler=0 / ip_ratio=1.40 / pb_ratio=1.30 / aq=3:0.80 / aq-sensitivity=10.00 / aq-factor=1.00:1.00:1.00 / aq2=0 / aq3=0
Язык : English
Default : Да
Forced : Нет
Цветовой диапазон : Limited
Коэффициенты матрицы : BT.709
Аудио
Идентификатор : 2
Формат : AC-3
Формат/Информация : Audio Coding 3
Идентификатор кодека : A_AC3
Продолжительность : 1 ч. 41 м.
Вид битрейта : Постоянный
Битрейт : 384 Кбит/сек
Каналы : 6 каналов
Расположение каналов : Front: L C R, Side: L R, LFE
Частота : 48,0 КГц
Частота кадров : 31,250 кадров/сек (1536 SPF)
Битовая глубина : 16 бит
Метод сжатия : С потерями
Размер потока : 280 Мбайт (3%)
Язык : Russian
ServiceKind/String : Complete Main
Default : Да
Forced : Да
Меню
00:00:00.000 : en:00:00:00.000
00:02:50.087 : en:00:02:50.087
00:10:02.143 : en:00:10:02.143
00:14:50.139 : en:00:14:50.139
00:22:11.956 : en:00:22:11.956
00:26:09.109 : en:00:26:09.109
00:32:02.963 : en:00:32:02.963
00:35:18.450 : en:00:35:18.450
00:40:06.529 : en:00:40:06.529
00:44:33.546 : en:00:44:33.546
00:49:58.245 : en:00:49:58.245
00:55:14.770 : en:00:55:14.770
00:59:26.521 : en:00:59:26.521
01:05:34.472 : en:01:05:34.472
01:10:20.633 : en:01:10:20.633
01:15:47.001 : en:01:15:47.001
01:22:48.213 : en:01:22:48.213
01:26:38.819 : en:01:26:38.819
01:31:15.970 : en:01:31:15.970
01:34:08.560 : en:01:34:08.560
Download / Скачать

Хотите скачать бесплатно? Зарегистрируйтесь на сайте (ссылка на регистрацию). Pirat.ca - самый быстрый торрент трекер в рунете!

Как скачивать  ·   Что такое торрент  ·   Рейтинг и ограничения

redfield

Корсар

Пост 23-Июл-2018 21:23 (спустя 12 часов)

[Q] 

Ну, что как оно?
[Профиль]  [ЛС] 

xgoliy

Морской Волк

Пост 24-Июл-2018 11:53 (спустя 14 часов)

[Q] 

На один раз, за труды Спасибо!!!
[Профиль]  [ЛС] 

Aleksey67

Штурман

Пост 17-Авг-2018 20:50 (спустя 24 дня)

[Q] 

Один раз посмотреть можно!
[Профиль]  [ЛС] 

lexaspirit

Пост 19-Ноя-2018 17:33 (спустя 3 месяца 1 день)

[Q] 

Смотреть можно, но сам сюжет фильма очень тупой

_________________
-------------------- ----------------------
[Профиль]  [ЛС] 
Показать сообщения:    
Ответить на тему

Текущее время: Сегодня 23:12

Часовой пояс: GMT + 4



Вы не можете начинать темы
Вы не можете отвечать на сообщения
Вы не можете редактировать свои сообщения
Вы не можете удалять свои сообщения
Вы не можете голосовать в опросах
Вы не можете прикреплять файлы к сообщениям
Вы не можете скачивать файлы

Майнать ▼